Начать новую тему Ответить на тему
Статистика раздачи
Размер: 272.93 МБ | Добавлен: 11 июл 2019, 11:57 | Скачали: 1
Сидеров: 1  [0 байт/сек]    Личеров: 0  [0 байт/сек]
Пред. тема | След. тема 

Автор
Сообщение

СообщениеДобавлено: 11 июл 2019, 11:57 

Ответить с цитатой 

Esteman / Amor Libre
Жанр: Latin, Alternative, Electro, Pop
Носитель: CD
Страна-производитель диска (релиза): México
Год издания: 2019
Издатель (лейбл): 2019 EMI Music Mexico S.A. de C.V
Номер по каталогу: 0602577446672
Страна исполнителя (группы): Argentina
Аудиокодек: FLAC (*.flac)
Тип рипа: image+.cue
Продолжительность: 00:43:53
Источник: собственная покупка
Наличие сканов в содержимом раздачи: нет

Треклист:
1. Solo
2. Buscándote
3. Noche Sensorial
4. Amor Libre
5. Fuimos Amor
6. 7 Días
7. Burina Faso
8. Yo Te Diré
9. Sociedad
10. On Top
11. Cuando No Estás
12. Desierto
Код:
Exact Audio Copy V1.3 from 2. September 2016
EAC extraction logfile from 16. June 2019, 17:24
Esteman / Amor Libre
Used drive  : HL-DT-STDVDRAM GSA-T20L   Adapter: 1  ID: 0
Read mode               : Secure
Utilize accurate stream : Yes
Defeat audio cache      : Yes
Make use of C2 pointers : No
Read offset correction                      : 667
Overread into Lead-In and Lead-Out          : No
Fill up missing offset samples with silence : Yes
Delete leading and trailing silent blocks   : No
Null samples used in CRC calculations       : Yes
Used interface                              : Native Win32 interface for Win NT & 2000
Used output format              : User Defined Encoder
Selected bitrate                : 768 kBit/s
Quality                         : High
Add ID3 tag                     : No
Command line compressor         : C:\Program Files (x86)\Exact Audio Copy\FLAC\FLAC.EXE
Additional command line options : -6 -V -T "ARTIST=%artist%" -T "TITLE=%title%" -T "ALBUM=%albumtitle%" -T "DATE=%year%" -T "TRACKNUMBER=%tracknr%" -T "GENRE=%genre%" -T "COMMENT=%comment%" -T "BAND=%albuminterpret%" -T "ALBUMARTIST=%albuminterpret%" -T "COMPOSER=%composer%" %haslyrics%--tag-from-file=LYRICS="%lyricsfile%"%haslyrics% -T "DISCNUMBER=%cdnumber%" -T "TOTALDISCS=%totalcds%" -T "TOTALTRACKS=%numtracks%" %hascover%--picture="%coverfile%"%hascover% %source% -o %dest%
TOC of the extracted CD
     Track |   Start  |  Length  | Start sector | End sector
    ---------------------------------------------------------
        1  |  0:00.00 |  3:43.69 |         0    |    16793
        2  |  3:43.69 |  2:56.55 |     16794    |    30048
        3  |  6:40.49 |  3:20.74 |     30049    |    45122
        4  | 10:01.48 |  3:11.51 |     45123    |    59498
        5  | 13:13.24 |  4:09.32 |     59499    |    78205
        6  | 17:22.56 |  3:19.33 |     78206    |    93163
        7  | 20:42.14 |  3:55.35 |     93164    |   110823
        8  | 24:37.49 |  3:56.38 |    110824    |   128561
        9  | 28:34.12 |  4:05.41 |    128562    |   146977
       10  | 32:39.53 |  3:45.41 |    146978    |   163893
       11  | 36:25.19 |  3:50.50 |    163894    |   181193
       12  | 40:15.69 |  3:37.17 |    181194    |   197485
Range status and errors
Selected range
     Filename C:\Users\alexc\Desktop\(Latin, Pop, Folk) 2019 Esteman - Amor Libre\Esteman - Amor Libre.wav
     Peak level 100.0 %
     Extraction speed 3.9 X
     Range quality 100.0 %
     Test CRC 34FD73D9
     Copy CRC 34FD73D9
     Copy OK
No errors occurred
AccurateRip summary
Track  1  not present in database
Track  2  not present in database
Track  3  not present in database
Track  4  not present in database
Track  5  not present in database
Track  6  not present in database
Track  7  not present in database
Track  8  not present in database
Track  9  not present in database
Track 10  not present in database
Track 11  not present in database
Track 12  not present in database
None of the tracks are present in the AccurateRip database
End of status report
---- CUETools DB Plugin V2.1.6
[CTDB TOCID: vLNx77bGJ.uutEHeRQRqW8JCa2w-] disk not present in database
Submit result: vLNx77bGJ.uutEHeRQRqW8JCa2w- has been uploaded
Код:
REM GENRE Pop
REM DATE 2019
REM DISCID 980A490C
REM COMMENT ExactAudioCopy v1.3
CATALOG 0602577446672
PERFORMER "Esteman"
TITLE "Amor Libre"
REM REPLAYGAIN_ALBUM_GAIN -8.79 dB
REM REPLAYGAIN_ALBUM_PEAK 1.000000
FILE "Esteman - Amor Libre.flac" WAVE
  TRACK 01 AUDIO
    TITLE "Solo"
    ISRC MXUM71900088
    REM REPLAYGAIN_TRACK_GAIN -8.50 dB
    REM REPLAYGAIN_TRACK_PEAK 1.000000
    INDEX 01 00:00:00
  TRACK 02 AUDIO
    TITLE "Buscándote"
    ISRC MXUM71900090
    REM REPLAYGAIN_TRACK_GAIN -8.69 dB
    REM REPLAYGAIN_TRACK_PEAK 1.000000
    INDEX 01 03:43:69
  TRACK 03 AUDIO
    TITLE "Noche Sensorial"
    ISRC MXUM71801256
    REM REPLAYGAIN_TRACK_GAIN -9.22 dB
    REM REPLAYGAIN_TRACK_PEAK 1.000000
    INDEX 01 06:40:49
  TRACK 04 AUDIO
    TITLE "Amor Libre"
    ISRC MXUM71900091
    REM REPLAYGAIN_TRACK_GAIN -9.14 dB
    REM REPLAYGAIN_TRACK_PEAK 1.000000
    INDEX 01 10:01:48
  TRACK 05 AUDIO
    TITLE "Fuimos Amor"
    ISRC MXUM71801746
    REM REPLAYGAIN_TRACK_GAIN -9.19 dB
    REM REPLAYGAIN_TRACK_PEAK 1.000000
    INDEX 01 13:13:24
  TRACK 06 AUDIO
    TITLE "7 Días"
    ISRC MXUM71900089
    REM REPLAYGAIN_TRACK_GAIN -8.64 dB
    REM REPLAYGAIN_TRACK_PEAK 1.000000
    INDEX 01 17:22:56
  TRACK 07 AUDIO
    TITLE "Burkina Faso"
    ISRC MXUM71900084
    REM REPLAYGAIN_TRACK_GAIN -8.07 dB
    REM REPLAYGAIN_TRACK_PEAK 1.000000
    INDEX 01 20:42:14
  TRACK 08 AUDIO
    TITLE "Yo Te Diré"
    ISRC MXUM71900085
    REM REPLAYGAIN_TRACK_GAIN -7.71 dB
    REM REPLAYGAIN_TRACK_PEAK 1.000000
    INDEX 01 24:37:49
  TRACK 09 AUDIO
    TITLE "Sociedad"
    ISRC MXUM71900001
    REM REPLAYGAIN_TRACK_GAIN -7.47 dB
    REM REPLAYGAIN_TRACK_PEAK 1.000000
    INDEX 01 28:34:12
  TRACK 10 AUDIO
    TITLE "On Top"
    ISRC MXUM71802697
    REM REPLAYGAIN_TRACK_GAIN -7.48 dB
    REM REPLAYGAIN_TRACK_PEAK 1.000000
    INDEX 01 32:39:53
  TRACK 11 AUDIO
    TITLE "Cuando No Estás"
    ISRC MXUM71900087
    REM REPLAYGAIN_TRACK_GAIN -10.41 dB
    REM REPLAYGAIN_TRACK_PEAK 1.000000
    INDEX 01 36:25:19
  TRACK 12 AUDIO
    TITLE "Desierto"
    ISRC MXUM71900086
    REM REPLAYGAIN_TRACK_GAIN -9.62 dB
    REM REPLAYGAIN_TRACK_PEAK 1.000000
    INDEX 01 40:15:69
Код:
-----------------------
DON'T MODIFY THIS FILE
-----------------------
PERFORMER: auCDtect Task Manager, ver. 1.6.0 RC1 build 1.6.0.1
Copyright (c) 2008-2010 y-soft. All rights reserved
[url=http://y-soft.org]http://y-soft.org[/url]
ANALYZER: auCDtect: CD records authenticity detector, version 0.8.2
Copyright (c) 2004 Oleg Berngardt. All rights reserved.
Copyright (c) 2004 Alexander Djourik. All rights reserved.
FILE: Esteman - Amor Libre.flac
  Size: 286242582 Hash: 9C97EAD5D3B0C64BEC4596BBE169F9CD Accuracy: -m0
  Conclusion: MPEG 95%
  Signature: 6BEBEB06F6E4793F32392E8E005BBF550F616B81
Правила, инструкции, FAQ!!!
Торрент  Добавлен [11 июл 2019, 11:57] Скачать торрент Магнет ссылка
Скачать торрент
[ Размер 11.33 КБ / Просмотров 7 ]

Статус
Проверен 
 
Размер  272.93 МБ
Приватный: Нет (DHT включён)
.torrent скачан  1
Как залить торрент? | Как скачать Torrent? | Ошибка в торренте? Качайте магнет  


     Отправить личное сообщение
   
Страница 1 из 1
Показать сообщения за:  Поле сортировки  
Начать новую тему Ответить на тему


Сейчас этот форум просматривают: нет зарегистрированных пользователей и гости: 0


Вы не можете начинать темы
Вы не можете отвечать на сообщения
Вы не можете редактировать свои сообщения
Вы не можете удалять свои сообщения
Вы не можете добавлять вложения

Перейти:  
Ресурс не предоставляет электронные версии произведений, а занимается лишь коллекционированием и каталогизацией ссылок, присылаемых и публикуемых на форуме нашими читателями. Если вы являетесь правообладателем какого-либо представленного материала и не желаете чтобы ссылка на него находилась в нашем каталоге, свяжитесь с нами и мы незамедлительно удалим её. Файлы для обмена на трекере предоставлены пользователями сайта, и администрация не несёт ответственности за их содержание. Просьба не заливать файлы, защищенные авторскими правами, а также файлы нелегального содержания!
cron