Начать новую тему Ответить на тему
Статистика раздачи
Размер: 1.96 ГБ | Добавлен: 08 июн 2019, 08:56 | Скачали: 1
Сидеров: 0  [0 байт/сек]    Личеров: 0  [0 байт/сек]
Пред. тема | След. тема 

Автор
Сообщение

СообщениеДобавлено: 08 июн 2019, 08:56 

Ответить с цитатой 

Jordi Savall & Le Concert des Nations / Mozart - Le Testament Symphonique
Формат записи/Источник записи: [TR24][OF]
Наличие водяных знаков: Нет
Год издания/переиздания диска: 2019
Жанр: Classical
Издатель (лейбл): Alia Vox
Продолжительность: 01:51:59
Наличие сканов в содержимом раздачи: Только обложка альбома
Треклист:
Mozart: Symphony No. 39 in E flat major, K543 30:55
01. I. Adagio – Allegro 10:44
02. II. Andante con moto 7:26
03. III. Menuetto : Allegretto - Trio 4:00
04. IV. Allegro 8:45
Mozart: Symphony No. 40 in G minor, K550 35:39
05. I. Molto allegro 7:19
06. II. Andante 14:07
07. III. Menuetto : Allegretto - Trio 4:24
08. IV. Allegro assai 9:49
Mozart: Symphony No. 41 in C major, K551 'Jupiter' 40:00
09. I. Allegro vivace 12:19
10. II. Andante cantabile 9:59
11. III. Menuetto : Allegretto - Trio 5:05
12. IV. Molto allegro 12:37
13. Mozart: Masonic Funeral Music in C minor, K477 5:20
Le Concert des Nations
Jordi Savall
Контейнер: FLAC (*.flac)
Тип рипа: tracks
Разрядность: 24/88,2
Формат: PCM
Количество каналов: 2.0
Код:
foobar2000 1.4.3 / Dynamic Range Meter 1.1.1
log date: 2019-05-30 10:36:49
--------------------------------------------------------------------------------
Analyzed: Jordi Savall & Le Concert des Nations / Mozart: Le Testament Symphonique
--------------------------------------------------------------------------------
DR         Peak         RMS     Duration Track
--------------------------------------------------------------------------------
DR10      -0.24 dB   -14.11 dB     10:44 01-Symphony No. 39 in E-Flat Major, K. 543: I. Adagio – Allegro
DR13      -1.98 dB   -21.79 dB      7:27 02-Symphony No. 39 in E-Flat Major, K. 543: II. Andante con moto
DR9       -0.29 dB   -13.10 dB      4:00 03-Symphony No. 39 in E-Flat Major, K. 543: III. Menuetto : Allegretto - Trio
DR11      -0.29 dB   -15.31 dB      8:46 04-Symphony No. 39 in E-Flat Major, K. 543: IV. Allegro
DR11      -0.29 dB   -15.76 dB      7:19 05-Symphony No. 40 in G Minor, K. 550: I. Molto allegro
DR13      -0.62 dB   -19.85 dB     14:07 06-Symphony No. 40 in G Minor, K. 550: II. Andante
DR12      -0.30 dB   -16.37 dB      4:24 07-Symphony No. 40 in G Minor, K. 550: III. Menuetto : Allegretto - Trio
DR12      -0.30 dB   -15.48 dB      9:49 08-Symphony No. 40 in G Minor, K. 550: IV. Allegro assai
DR10      -0.19 dB   -14.70 dB     12:20 09-Symphony No. 41 in C Major, K. 551 "Jupiter": I. Allegro vivace
DR14      -0.83 dB   -21.07 dB     10:00 10-Symphony No. 41 in C Major, K. 551 "Jupiter": II. Andante cantabile
DR12      -0.22 dB   -16.57 dB      5:05 11-Symphony No. 41 in C Major, K. 551 "Jupiter": III. Menuetto : Allegretto - Trio
DR10      -0.19 dB   -13.61 dB     12:37 12-Symphony No. 41 in C Major, K. 551 "Jupiter": IV. Molto allegro
DR12      -3.47 dB   -20.96 dB      5:21 13-Maurerische Trauermusik, K. 477
--------------------------------------------------------------------------------
Number of tracks:  13
Official DR value: DR12
Samplerate:        88200 Hz
Channels:          2
Bits per sample:   24
Bitrate:           2168 kbps
Codec:             FLAC
================================================================================
Источник (релизер): https://www.highresaudio.com/en/album/view/43f9a8/jordi-savall-le-concert-des-nat...ue#albumtab-info
Правила, инструкции, FAQ!!!
Торрент  Добавлен [08 июн 2019, 08:56] Скачать торрент Магнет ссылка
Скачать торрент
[ Размер 41.08 КБ / Просмотров 8 ]

Статус
Проверен 
 
Размер  1.96 ГБ
Приватный: Нет (DHT включён)
.torrent скачан  1
Как залить торрент? | Как скачать Torrent? | Ошибка в торренте? Качайте магнет  


     Отправить личное сообщение
   
Страница 1 из 1
Показать сообщения за:  Поле сортировки  
Начать новую тему Ответить на тему


Сейчас этот форум просматривают: нет зарегистрированных пользователей и гости: 0


Вы не можете начинать темы
Вы не можете отвечать на сообщения
Вы не можете редактировать свои сообщения
Вы не можете удалять свои сообщения
Вы не можете добавлять вложения

Перейти:  
Ресурс не предоставляет электронные версии произведений, а занимается лишь коллекционированием и каталогизацией ссылок, присылаемых и публикуемых на форуме нашими читателями. Если вы являетесь правообладателем какого-либо представленного материала и не желаете чтобы ссылка на него находилась в нашем каталоге, свяжитесь с нами и мы незамедлительно удалим её. Файлы для обмена на трекере предоставлены пользователями сайта, и администрация не несёт ответственности за их содержание. Просьба не заливать файлы, защищенные авторскими правами, а также файлы нелегального содержания!
cron