Начать новую тему Ответить на тему
Статистика раздачи
Размер: 1.15 ГБ | Добавлен: 08 июн 2019, 08:56 | Скачали: 1
Сидеров: 0  [0 байт/сек]    Личеров: 0  [0 байт/сек]
Пред. тема | След. тема 

Автор
Сообщение

СообщениеДобавлено: 08 июн 2019, 08:56 

Ответить с цитатой 

Jeroen van Veen / Glass - Complete Piano Etudes
Формат записи/Источник записи: [TR24][OF]
Наличие водяных знаков: Нет
Год издания/переиздания диска: 2019
Жанр: Classical
Издатель (лейбл): Brilliant Classics
Продолжительность: 02:22:53
Наличие сканов в содержимом раздачи: Буклет PDF
Треклист:
Glass, P: Etudes For Piano Nos. 1-10 1:12:54
01. Etude No. 1 6:29
02. Etude No. 2 7:26
03. Etude No. 3 4:46
04. Etude No. 4 4:23
05. Etude No. 5 9:49
06. Etude No. 6 5:49
07. Etude No. 7 14:40
08. Etude No. 8 7:03
09. Etude No. 9 3:52
10. Etude No. 10 8:37
Glass, P: Etudes For Piano Nos. 11-20 1:09:58
11. Etude No. 11 8:29
12. Etude No. 12 7:44
13. Etude No. 13 4:57
14. Etude No. 14 6:16
15. Etude No. 15 7:46
16. Etude No. 16 5:43
17. Etude No. 17 8:42
18. Etude No. 18 4:28
19. Etude No. 19 5:50
20. Etude No. 20 10:03
Jeroen van Veen (piano)
Recorded: 27-28 February 2017
Recording Venue: Van Veen Productions, Studio II, Pernissimo, Pernis, The Netherlands
Контейнер: FLAC (*.flac)
Тип рипа: tracks
Разрядность: 24/44,1
Формат: PCM
Количество каналов: 2.0
Код:
foobar2000 1.4.3 / Dynamic Range Meter 1.1.1
log date: 2019-05-28 17:58:09
--------------------------------------------------------------------------------
Analyzed: Jeroen Van Veen / Glass: Complete Piano Etudes
--------------------------------------------------------------------------------
DR         Peak         RMS     Duration Track
--------------------------------------------------------------------------------
DR9       -2.00 dB   -14.64 dB      6:30 01-Etudes for Piano Book I: I. Etude in G Minor
DR9       -2.00 dB   -15.21 dB      7:27 02-Etudes for Piano Book I: II. Etude in A Minor
DR9       -2.00 dB   -13.00 dB      4:46 03-Etudes for Piano Book I: III. Etude in A Major
DR10      -2.71 dB   -15.40 dB      4:23 04-Etudes for Piano Book I: IV. Etude in D Minor
DR13      -3.36 dB   -20.99 dB      9:49 05-Etudes for Piano Book I: V. Etude in F Minor
DR11      -2.00 dB   -14.81 dB      5:50 06-Etudes for Piano Book I: VI. Etude in F Minor
DR10      -2.00 dB   -15.41 dB     14:40 07-Etudes for Piano Book I: VII. Etude in A Minor
DR11      -2.63 dB   -17.90 dB      7:03 08-Etudes for Piano Book I: VIII. Etude in C Major
DR9       -2.00 dB   -15.40 dB      3:53 09-Etudes for Piano Book I: IX. Etude in F Minor
DR11      -2.00 dB   -15.08 dB      8:37 10-Etudes for Piano Book I: X. Etude in E-Flat Major
DR8       -2.00 dB   -12.70 dB      8:30 11-Etudes for Piano Book II: XI. Etude in C Minor
DR10      -2.95 dB   -15.93 dB      7:44 12-Etudes for Piano Book II: XII. Etude in D Minor
DR10      -2.42 dB   -15.44 dB      4:58 13-Etudes for Piano Book II: XIII. Etude in F Major
DR11      -3.09 dB   -17.41 dB      6:17 14-Etudes for Piano Book II: XIV. Etude in A-Flat Major
DR7       -2.00 dB   -11.77 dB      7:47 15-Etudes for Piano Book II: XV. Etude in D Major
DR11      -2.25 dB   -17.69 dB      5:44 16-Etudes for Piano Book II: XVI. Etude in G Minor
DR9       -2.00 dB   -14.25 dB      8:42 17-Etudes for Piano Book II: XVII. Etude in F Minor
DR11      -3.65 dB   -17.54 dB      4:29 18-Etudes for Piano Book II: XVIII. Etude in G Minor
DR9       -2.15 dB   -14.39 dB      5:50 19-Etudes for Piano Book II: IXX Etude in C Major
DR12      -2.20 dB   -19.27 dB     10:03 20-Etudes for Piano Book II: XX. Etude in C Major
--------------------------------------------------------------------------------
Number of tracks:  20
Official DR value: DR10
Samplerate:        44100 Hz
Channels:          2
Bits per sample:   24
Bitrate:           1055 kbps
Codec:             FLAC
================================================================================
Источник (релизер): https://www.qobuz.com/gb-en/album/glass-complete-piano-etudes-jeroen-van-veen/5028421955636
Правила, инструкции, FAQ!!!
Торрент  Добавлен [08 июн 2019, 08:56] Скачать торрент Магнет ссылка
Скачать торрент
[ Размер 48.39 КБ / Просмотров 8 ]

Статус
Проверен 
 
Размер  1.15 ГБ
Приватный: Нет (DHT включён)
.torrent скачан  1
Как залить торрент? | Как скачать Torrent? | Ошибка в торренте? Качайте магнет  


     Отправить личное сообщение
   
Страница 1 из 1
Показать сообщения за:  Поле сортировки  
Начать новую тему Ответить на тему


Сейчас этот форум просматривают: нет зарегистрированных пользователей и гости: 0


Вы не можете начинать темы
Вы не можете отвечать на сообщения
Вы не можете редактировать свои сообщения
Вы не можете удалять свои сообщения
Вы не можете добавлять вложения

Перейти:  
Ресурс не предоставляет электронные версии произведений, а занимается лишь коллекционированием и каталогизацией ссылок, присылаемых и публикуемых на форуме нашими читателями. Если вы являетесь правообладателем какого-либо представленного материала и не желаете чтобы ссылка на него находилась в нашем каталоге, свяжитесь с нами и мы незамедлительно удалим её. Файлы для обмена на трекере предоставлены пользователями сайта, и администрация не несёт ответственности за их содержание. Просьба не заливать файлы, защищенные авторскими правами, а также файлы нелегального содержания!
cron