Начать новую тему Ответить на тему
Статистика раздачи
Размер: 640.84 МБ | Добавлен: 08 июн 2019, 08:57 | Скачали: 1
Сидеров: 21  [0 байт/сек]    Личеров: 7  [0 байт/сек]
Пред. тема | След. тема 

Автор
Сообщение

СообщениеДобавлено: 08 июн 2019, 08:57 

Ответить с цитатой 

Jean-Claude Pennetier / Faure - Complete Piano Music, Volume 2
Формат записи/Источник записи: [TR24][OF]
Наличие водяных знаков: Нет
Год издания/переиздания диска: 2011
Жанр: Classical
Издатель (лейбл): Mirare
Продолжительность: 01:18:18
Наличие сканов в содержимом раздачи: Буклет PDF
Треклист:
Gabriel Urbain Fauré (1845-1924) :
01. Romance sans paroles opus 17 n°1 2:11
02. Romance sans paroles opus 17 n°2 2:25
03. Romance sans paroles opus 17 n°3 2:48
04. Nocturne No. 1 in E flat minor, Op. 33 No. 1 7:40
05. Deuxième Nocturne en si majeur opus 33 6:03
06. Premier Impromptu en mi bémol majeur opus 25 5:14
07. Première Barcarolle en la mineur opus 26 5:01
08. Deuxième Impromptu en fa mineur opus 31 4:04
09. Troisième Nocturne en la bémol majeur opus 33 5:22
10. Troisième Impromptu en la bémol majeur opus 31 4:43
11. Quatrième Nocturne en si bémol majeur opus 36 7:23
12. Cinquième Nocturne en si bémol majeur opus 37 9:28
13. Deuxième Barcarolle en sol majeur opus 41 7:47
14. Troisième Barcarolle en sol bémol majeur opus 42 8:09
Jean-Claude Pennetier (piano)
Контейнер: FLAC (*.flac)
Тип рипа: tracks
Разрядность: 24/44,1
Формат: PCM
Количество каналов: 2.0
Код:
foobar2000 1.4.3 / Dynamic Range Meter 1.1.1
log date: 2019-06-07 21:45:34
--------------------------------------------------------------------------------
Analyzed: Jean-Claude Pennetier / Fauré: Intégrale de l'oeuvre pour piano, Volume 2
--------------------------------------------------------------------------------
DR         Peak         RMS     Duration Track
--------------------------------------------------------------------------------
DR11      -9.11 dB   -26.74 dB      2:11 01-Romance sans paroles opus 17 n°1
DR11      -3.27 dB   -21.24 dB      2:26 02-Romance sans paroles opus 17 n°2
DR13     -10.36 dB   -30.70 dB      2:48 03-Romance sans paroles opus 17 n°3
DR16      -1.96 dB   -25.71 dB      7:41 04-Premier Nocturne en mi bémol mineur opus 33
DR13      -2.70 dB   -22.59 dB      6:03 05-Deuxième Nocturne en si majeur opus 33
DR14      -3.44 dB   -24.64 dB      5:14 06-Premier Impromptu en mi bémol majeur opus 25
DR16      -4.13 dB   -26.24 dB      5:02 07-Première Barcarolle en la mineur opus 26
DR12      -5.34 dB   -22.32 dB      4:05 08-Deuxième Impromptu en fa mineur opus 31
DR16      -3.84 dB   -27.40 dB      5:22 09-Troisième Nocturne en la bémol majeur opus 33
DR15      -1.82 dB   -23.30 dB      4:44 10-Troisième Impromptu en la bémol majeur opus 31
DR15      -3.53 dB   -25.61 dB      7:24 11-Quatrième Nocturne en si bémol majeur opus 36
DR13      -4.39 dB   -23.66 dB      9:29 12-Cinquième Nocturne en si bémol majeur opus 37
DR14      -2.54 dB   -23.10 dB      7:48 13-Deuxième Barcarolle en sol majeur opus 41
DR14      -3.86 dB   -24.74 dB      8:10 14-Troisième Barcarolle en sol bémol majeur opus 42
--------------------------------------------------------------------------------
Number of tracks:  14
Official DR value: DR14
Samplerate:        44100 Hz
Channels:          2
Bits per sample:   24
Bitrate:           1140 kbps
Codec:             FLAC
================================================================================
Источник (релизер): https://www.prestomusic.com/classical/products/8004021--faure-complete-piano-music-volume-2
Правила, инструкции, FAQ!!!
Торрент  Добавлен [08 июн 2019, 08:57] Скачать торрент Магнет ссылка
Скачать торрент
[ Размер 26.74 КБ / Просмотров 7 ]

Статус
Проверен 
 
Размер  640.84 МБ
Приватный: Нет (DHT включён)
.torrent скачан  1
Как залить торрент? | Как скачать Torrent? | Ошибка в торренте? Качайте магнет  


     Отправить личное сообщение
   
Страница 1 из 1
Показать сообщения за:  Поле сортировки  
Начать новую тему Ответить на тему


Сейчас этот форум просматривают: нет зарегистрированных пользователей и гости: 0


Вы не можете начинать темы
Вы не можете отвечать на сообщения
Вы не можете редактировать свои сообщения
Вы не можете удалять свои сообщения
Вы не можете добавлять вложения

Перейти:  
Ресурс не предоставляет электронные версии произведений, а занимается лишь коллекционированием и каталогизацией ссылок, присылаемых и публикуемых на форуме нашими читателями. Если вы являетесь правообладателем какого-либо представленного материала и не желаете чтобы ссылка на него находилась в нашем каталоге, свяжитесь с нами и мы незамедлительно удалим её. Файлы для обмена на трекере предоставлены пользователями сайта, и администрация не несёт ответственности за их содержание. Просьба не заливать файлы, защищенные авторскими правами, а также файлы нелегального содержания!