Начать новую тему Ответить на тему
Статистика раздачи
Размер: 272.03 МБ | Добавлен: 09 апр 2019, 19:06 | Скачали: 0
Сидеров: 1  [0 байт/сек]    Личеров: 0  [0 байт/сек]
Пред. тема | След. тема 

Автор
Сообщение

СообщениеДобавлено: 09 апр 2019, 19:06 

Ответить с цитатой 

Charlie Parker, Ben Webster, Benny Carter, Johnny Hodges, Flip Phillips And Others. Super Session
Жанр: Bop
Год выпуска диска: 2002
Производитель диска: Германия
Аудио кодек: FLAC
Тип рипа: tracks
Битрейт аудио: lossless
Продолжительность: 61:27.26
Трэклист:
1. Funky Blues (Hodges)
2. What Is This Thing Called Love (Porter)
3. Ballad Medley
4. Jam Blues (Shrdlu)
Доп. информация: Сессия записана в июле 1952 года в Лос-Анджелесе.
Exact Audio Copy V0.99 prebeta 3 from 28. July 2007
EAC extraction logfile from 26. December 2009, 22:27
Charlie Parker And Others / Super Session
Used drive : HL-DT-STDVD-RAM GH22NP20 Adapter: 0 ID: 0
Read mode : Secure
Utilize accurate stream : Yes
Defeat audio cache : Yes
Make use of C2 pointers : No
Read offset correction : 102
Overread into Lead-In and Lead-Out : No
Fill up missing offset samples with silence : Yes
Delete leading and trailing silent blocks : No
Null samples used in CRC calculations : No
Used interface : Native Win32 interface for Win NT & 2000
Gap handling : Appended to previous track
Used output format : User Defined Encoder
Selected bitrate : 1024 kBit/s
Quality : High
Add ID3 tag : No
Command line compressor : C:\Program Files\FLAC\flac.exe
Additional command line options : -8 -V %s
TOC of the extracted CD
Track | Start | Length | Start sector | End sector
---------------------------------------------------------
1 | 0:00.00 | 13:28.66 | 0 | 60665
2 | 13:28.66 | 15:52.18 | 60666 | 132083
3 | 29:21.09 | 17:25.05 | 132084 | 210463
4 | 46:46.14 | 14:41.13 | 210464 | 276551
Track 1
Filename C:\ParkerInfo\01. Charlie Parker And Others - Funky Blues.wav
Pre-gap length 0:00:02.00
Peak level 99.7 %
Track quality 100.0 %
Copy CRC 361017AE
Accurately ripped (confidence 1) [B57BA861]
Copy OK
Track 2
Filename C:\ParkerInfo\02. Charlie Parker And Others - What Is This Thing Called Love.wav
Pre-gap length 0:00:02.00
Peak level 100.0 %
Track quality 100.0 %
Copy CRC 9F306A21
Accurately ripped (confidence 1) [DF4DD223]
Copy OK
Track 3
Filename C:\ParkerInfo\03. Charlie Parker And Others - Ballad Medley.wav
Pre-gap length 0:00:02.00
Peak level 99.4 %
Track quality 100.0 %
Copy CRC 98F3B2EE
Accurately ripped (confidence 1) [1E1E2A93]
Copy OK
Track 4
Filename C:\ParkerInfo\04. Charlie Parker And Others - Jam Blues.wav
Pre-gap length 0:00:02.00
Peak level 99.7 %
Track quality 100.0 %
Copy CRC 23AED6AF
Accurately ripped (confidence 1) [4264C9EE]
Copy OK
All tracks accurately ripped
No errors occurred
End of status report
Правила, инструкции, FAQ!!!
Торрент  Добавлен [09 апр 2019, 19:06] Скачать торрент Магнет ссылка
Скачать торрент
[ Размер 11.66 КБ / Просмотров 0 ]

Статус
Проверен 
 
Размер  272.03 МБ
Приватный: Нет (DHT включён)
.torrent скачан  0
Как залить торрент? | Как скачать Torrent? | Ошибка в торренте? Качайте магнет  


     Отправить личное сообщение
   
Страница 1 из 1
Показать сообщения за:  Поле сортировки  
Начать новую тему Ответить на тему


Сейчас этот форум просматривают: нет зарегистрированных пользователей и гости: 0


Вы не можете начинать темы
Вы не можете отвечать на сообщения
Вы не можете редактировать свои сообщения
Вы не можете удалять свои сообщения
Вы не можете добавлять вложения

Перейти:  
Ресурс не предоставляет электронные версии произведений, а занимается лишь коллекционированием и каталогизацией ссылок, присылаемых и публикуемых на форуме нашими читателями. Если вы являетесь правообладателем какого-либо представленного материала и не желаете чтобы ссылка на него находилась в нашем каталоге, свяжитесь с нами и мы незамедлительно удалим её. Файлы для обмена на трекере предоставлены пользователями сайта, и администрация не несёт ответственности за их содержание. Просьба не заливать файлы, защищенные авторскими правами, а также файлы нелегального содержания!