Начать новую тему Ответить на тему
Статистика раздачи
Размер: 564.27 МБ | Добавлен: 08 июн 2019, 08:57 | Скачали: 1
Сидеров: 0  [0 байт/сек]    Личеров: 0  [0 байт/сек]
Пред. тема | След. тема 

Автор
Сообщение

СообщениеДобавлено: 08 июн 2019, 08:57 

Ответить с цитатой 

Georgijs Osokins, Sergejs Osokins, Andrejs Osokins / Ivanovs, Maskats, Skulte, Vasks, Vitols, Zalitis -The Three Osokins in Latvian Piano Music
Формат записи/Источник записи: [TR24][OF]
Наличие водяных знаков: Нет
Год издания/переиздания диска: 2018
Жанр: Classical
Издатель (лейбл): SKANI
Продолжительность: 01:15:38
Наличие сканов в содержимом раздачи: Буклет PDF
01. Vasks: Music for a Summer Evening 6:57
02. Vasks: White Scenery 9:12
03. Skulte: Arietta 2:58
04. Zālītis: Album Leaf 1:12
05. Zālītis: Mazurka in E minor 1:03
06. Zālītis: Poem 1:36
07. Zālītis: Prelude 1:57
08. Zālītis: Reminiscence 1:46
09. Zālītis: Subtle Delight 0:57
10. Zālītis: Mazurka in G-flat Major 1:57
Ivanovs: Five Preludes (1952-1953) 5:13
11. I. Allegro moderato 0:59
12. II. Allegretto 0:44
13. III. Andantino 1:18
14. IV. Andante moderato 1:32
15. V. Allegro 0:40
Ivanovs: Five Preludes (1976-1979) 9:54
16. I. Andante 2:12
17. II. Allegretto 2:02
18. III. Moderato 3:16
19. IV. Senza tempo 1:48
20. V. Allegro molto 0:36
21. Maskats: Kazbegi: Tsminda-Sameba 11:39
22. Vitols: 2 Pieces, Op. 41: I. Berceuse 2:19
Vitols: Mazurka et Valse, Op. 9 6:52
23. I. Mazurka 2:48
24. II. Valse 4:04
25. Vitols: 3 Preludes, Op.16: II. In B-flat Minor 3:07
26. Vitols: Berceuse et Etude, Op. 18: I. Berceuse 3:08
27. Vitols: 2 Pieces, Op. 41: II. Song of the Waves 3:50

Georgijs Osokins (piano), Sergejs Osokins (piano), Andrejs Osokins (piano)
Контейнер: FLAC (*.flac)
Тип рипа: tracks
Разрядность: 24/44,1
Формат: PCM
Количество каналов: 2.0
Код:
foobar2000 1.4.3 / Dynamic Range Meter 1.1.1
log date: 2019-06-05 22:18:53
--------------------------------------------------------------------------------
Analyzed: The 3 Osokins / The 3 Osokins in Latvian Piano Music
--------------------------------------------------------------------------------
DR         Peak         RMS     Duration Track
--------------------------------------------------------------------------------
DR15      -6.42 dB   -28.34 dB      6:58 01-Music for a Summer Evening
DR18      -4.11 dB   -30.09 dB      9:13 02-The Seasons: No. 1, White Scenery
DR15      -4.91 dB   -26.20 dB      2:59 03-Arietta
DR12     -13.32 dB   -30.56 dB      1:12 04-Album Leaf
DR13      -7.32 dB   -26.08 dB      1:03 05-Mazurka in E Minor
DR13      -4.89 dB   -25.44 dB      1:36 06-Poem
DR14      -4.37 dB   -24.36 dB      1:58 07-Prelude
DR13     -10.78 dB   -28.83 dB      1:46 08-Reminiscence
DR13     -10.55 dB   -29.03 dB      0:58 09-Subtle Delight
DR13      -4.99 dB   -22.51 dB      1:58 10-Mazurka in G-Flat Major
DR12      -5.52 dB   -22.89 dB      0:59 11-5 Preludes I: No. 1, Allegro moderato
DR11     -15.66 dB   -32.35 dB      0:44 12-5 Preludes I: No. 2, Allegretto
DR15      -5.43 dB   -26.99 dB      1:19 13-5 Preludes I: No. 3, Andantino
DR13     -10.91 dB   -29.11 dB      1:32 14-5 Preludes I: No. 4, Andante moderato
DR12      -4.71 dB   -20.19 dB      0:41 15-5 Preludes I: No. 5, Allegro
DR15      -4.20 dB   -27.69 dB      2:12 16-5 Preludes II: No. 1, Andante
DR14      -6.67 dB   -28.16 dB      2:02 17-5 Preludes II: No. 2, Allegretto
DR14      -4.37 dB   -26.50 dB      3:16 18-5 Preludes II: No. 3, Moderato
DR14      -2.20 dB   -24.92 dB      1:49 19-5 Preludes II: No. 4, Senza tempo
DR13      -5.06 dB   -21.03 dB      0:36 20-5 Preludes II: No. 5, Allegro molto
DR14      -0.43 dB   -21.32 dB     11:40 21-Tsminda Sameba
DR13      -7.80 dB   -28.86 dB      2:20 22-2 Morceaux, Op. 41: No. 1, Berceuse
DR13      -5.44 dB   -23.81 dB      2:48 23-Mazurka et valse in Op. 9: No. 1, Mazurka
DR14      -1.42 dB   -20.24 dB      4:04 24-Mazurka et valse in Op. 9: No. 2, Valse
DR14      -5.34 dB   -28.10 dB      3:08 25-3 Preludes, Op. 16: No. 2 in B-Flat Minor
DR14      -5.78 dB   -29.13 dB      3:08 26-Berceuse et étude, Op. 18: No. 1, Lullaby
DR12      -1.60 dB   -18.44 dB      3:50 27-2 Morceaux, Op. 41: No. 2, Song of the Waves
--------------------------------------------------------------------------------
Number of tracks:  27
Official DR value: DR13
Samplerate:        44100 Hz
Channels:          2
Bits per sample:   24
Bitrate:           1145 kbps
Codec:             FLAC
================================================================================
Источник (релизер): https://www.prestomusic.com/classical/products/8432913--the-3-osokins-in-latvian-piano-music
Правила, инструкции, FAQ!!!
Торрент  Добавлен [08 июн 2019, 08:57] Скачать торрент Магнет ссылка
Скачать торрент
[ Размер 46.46 КБ / Просмотров 7 ]

Статус
Проверен 
 
Размер  564.27 МБ
Приватный: Нет (DHT включён)
.torrent скачан  1
Как залить торрент? | Как скачать Torrent? | Ошибка в торренте? Качайте магнет  


     Отправить личное сообщение
   
Страница 1 из 1
Показать сообщения за:  Поле сортировки  
Начать новую тему Ответить на тему


Сейчас этот форум просматривают: нет зарегистрированных пользователей и гости: 0


Вы не можете начинать темы
Вы не можете отвечать на сообщения
Вы не можете редактировать свои сообщения
Вы не можете удалять свои сообщения
Вы не можете добавлять вложения

Перейти:  
Ресурс не предоставляет электронные версии произведений, а занимается лишь коллекционированием и каталогизацией ссылок, присылаемых и публикуемых на форуме нашими читателями. Если вы являетесь правообладателем какого-либо представленного материала и не желаете чтобы ссылка на него находилась в нашем каталоге, свяжитесь с нами и мы незамедлительно удалим её. Файлы для обмена на трекере предоставлены пользователями сайта, и администрация не несёт ответственности за их содержание. Просьба не заливать файлы, защищенные авторскими правами, а также файлы нелегального содержания!
cron