Начать новую тему Ответить на тему
Статистика раздачи
Размер: 1013.02 МБ | Добавлен: 23 май 2019, 20:06 | Скачали: 0
Сидеров: 0  [0 байт/сек]    Личеров: 0  [0 байт/сек]
Пред. тема | След. тема 

Автор
Сообщение

СообщениеДобавлено: 23 май 2019, 20:06 

Ответить с цитатой 

Ultra Dance 004 Non Stop Megamix




Жанр: Italodisco, Eurodance
Страна-производитель диска: Япония
Год издания диска: 1999
Издатель (лейбл): Avex Trax
Номер по каталогу: AVCD-15004
Страна: EU
Аудио кодек: FLAC (*.flac)
Тип рипа: image+.cue
Битрейт аудио: lossless
Продолжительность: 01:10:21
Источник (релизер): novartis
Наличие сканов в содержимом раздачи: даТреклист:
1. Steps - Love's Got A Hold On My Heart (3:38)
2. Jacynthe - Don't Let Me Down (3:15)
3. Vengaboys - Boom, Boom, Boom, Boom!! (3:10)
4. Lovers, The - Ringa Dinga Dong (3:05)
5. Hanna - Back In The Time (3:27)
6. Soda - Saturnight (2:22)
7. GTS & Melodie Sexton feat. M-Flo - Shine In My Life (3:13)
8. Zoom - All The Way To Heaven (2:57)
9. Suga - I Like It (2:53)
10. A.E. feat. Melanie - All Around The World (3:06)
11. AI - In Rain And Sunshine (3:00)
12. Supercar feat. Mikaela - Computer Love (2:19)
13. Pay Day v.s. Simone Jay - Good Times (3:20)
14. Bobby Summer - Bring Your Love (2:43)
15. Name - Life Is Always Wonderful (2:56)
16. Yves - If You Love (2:25)
17. Urban Cookie Collective - Mercedes Benz (2:02)
18. More - 4 Ever With Me (2:51)
19. Victoria - Written In The Stars (3:06)
20. Roxanne - My Heart's Not A Mailbox (3:15)
21. Captain Cozmo - The Final Countdown (2:34)
22. Mission-X - I'm A Man (2:50)
23. Steve Rhyner feat. Mona Phillip - See The Rainbow (2:28)
24. Nellow feat. Sabrina O. - Devotion (3:26)
Код:
Exact Audio Copy V0.99 prebeta 5 from 4. May 2009
EAC extraction logfile from 14. October 2010, 23:18
Various / Ultra Dance 004 Non Stop Megamix
Used drive  : PBDS    DVD+-RW DS-8W1P   Adapter: 0  ID: 0
Read mode               : Secure
Utilize accurate stream : Yes
Defeat audio cache      : Yes
Make use of C2 pointers : No
Read offset correction                      : 594
Overread into Lead-In and Lead-Out          : No
Fill up missing offset samples with silence : Yes
Delete leading and trailing silent blocks   : No
Null samples used in CRC calculations       : Yes
Used interface                              : Native Win32 interface for Win NT & 2000
Used output format              : User Defined Encoder
Selected bitrate                : 128 kBit/s
Quality                         : High
Add ID3 tag                     : No
Command line compressor         : C:\Program Files\Exact Audio Copy\Flac\flac.exe
Additional command line options : -8 -V %s
TOC of the extracted CD
     Track |   Start  |  Length  | Start sector | End sector
    ---------------------------------------------------------
        1  |  0:00.00 |  3:38.42 |         0    |    16391
        2  |  3:38.42 |  3:15.00 |     16392    |    31016
        3  |  6:53.42 |  3:10.53 |     31017    |    45319
        4  | 10:04.20 |  3:05.47 |     45320    |    59241
        5  | 13:09.67 |  3:27.50 |     59242    |    74816
        6  | 16:37.42 |  2:22.05 |     74817    |    85471
        7  | 18:59.47 |  3:13.65 |     85472    |   100011
        8  | 22:13.37 |  2:57.20 |    100012    |   113306
        9  | 25:10.57 |  2:53.25 |    113307    |   126306
       10  | 28:04.07 |  3:06.43 |    126307    |   140299
       11  | 31:10.50 |  3:00.20 |    140300    |   153819
       12  | 34:10.70 |  2:19.05 |    153820    |   164249
       13  | 36:30.00 |  3:20.25 |    164250    |   179274
       14  | 39:50.25 |  2:43.37 |    179275    |   191536
       15  | 42:33.62 |  2:56.65 |    191537    |   204801
       16  | 45:30.52 |  2:25.03 |    204802    |   215679
       17  | 47:55.55 |  2:02.20 |    215680    |   224849
       18  | 49:58.00 |  2:51.20 |    224850    |   237694
       19  | 52:49.20 |  3:06.67 |    237695    |   251711
       20  | 55:56.12 |  3:15.40 |    251712    |   266376
       21  | 59:11.52 |  2:34.73 |    266377    |   277999
       22  | 61:46.50 |  2:50.47 |    278000    |   290796
       23  | 64:37.22 |  2:28.40 |    290797    |   301936
       24  | 67:05.62 |  3:26.23 |    301937    |   317409
Range status and errors
Selected range
     Filename D:\Ultra Dance 004 Non Stop Megamix\Various - Ultra Dance 004 Non Stop Megamix.wav
     Peak level 100.0 %
     Range quality 100.0 %
     Test CRC 3780C54D
     Copy CRC 3780C54D
     Copy OK
No errors occurred
AccurateRip summary
Track  1  not present in database
Track  2  not present in database
Track  3  not present in database
Track  4  not present in database
Track  5  not present in database
Track  6  not present in database
Track  7  not present in database
Track  8  not present in database
Track  9  not present in database
Track 10  not present in database
Track 11  not present in database
Track 12  not present in database
Track 13  not present in database
Track 14  not present in database
Track 15  not present in database
Track 16  not present in database
Track 17  not present in database
Track 18  not present in database
Track 19  not present in database
Track 20  not present in database
Track 21  not present in database
Track 22  not present in database
Track 23  not present in database
Track 24  not present in database
None of the tracks are present in the AccurateRip database
End of status report
Код:
AUDIOCHECKER v2.0 beta (build 457) - by Dester - opdester@freemail.hu
~~~~~~~~~~~~~~~~~~~~~~~~~~~~~~~~~~
-=== DO NOT EDIT THIS FILE! ===-
Path: ...\Ultra Dance 004 Non Stop Megamix
1 -=- Various - Ultra Dance 004 Non Stop Megamix.flac -=- CDDA (100%)
244804244
Avex Trax издавна славится отличным качеством своей музыки. Это и восхитетельное качество записи, которое не уступает качеству компиляций танцевальных сборников. Учитывая то, что некоторые треки на сборниках Ultra Dance (да и многих прочих), издавались только в Японии - данная серия дисков автоматически причисляется к эстра-раритету, весьма и весьма желанному для ценителей.
Правила, инструкции, FAQ!!!
Торрент  Добавлен [23 май 2019, 20:06] Скачать торрент Магнет ссылка
Скачать торрент
[ Размер 21.73 КБ / Просмотров 4 ]

Статус
Проверен 
 
Размер  1013.02 МБ
Приватный: Нет (DHT включён)
.torrent скачан  0
Как залить торрент? | Как скачать Torrent? | Ошибка в торренте? Качайте магнет  


     Отправить личное сообщение
   
Страница 1 из 1
Показать сообщения за:  Поле сортировки  
Начать новую тему Ответить на тему


Сейчас этот форум просматривают: нет зарегистрированных пользователей и гости: 0


Вы не можете начинать темы
Вы не можете отвечать на сообщения
Вы не можете редактировать свои сообщения
Вы не можете удалять свои сообщения
Вы не можете добавлять вложения

Перейти:  
Ресурс не предоставляет электронные версии произведений, а занимается лишь коллекционированием и каталогизацией ссылок, присылаемых и публикуемых на форуме нашими читателями. Если вы являетесь правообладателем какого-либо представленного материала и не желаете чтобы ссылка на него находилась в нашем каталоге, свяжитесь с нами и мы незамедлительно удалим её. Файлы для обмена на трекере предоставлены пользователями сайта, и администрация не несёт ответственности за их содержание. Просьба не заливать файлы, защищенные авторскими правами, а также файлы нелегального содержания!
cron