Начать новую тему Ответить на тему
Статистика раздачи
Размер: 140.76 МБ | Добавлен: 23 май 2019, 20:05 | Скачали: 0
Сидеров: 0  [0 байт/сек]    Личеров: 0  [0 байт/сек]
Пред. тема | След. тема 

Автор
Сообщение

СообщениеДобавлено: 23 май 2019, 20:05 

Ответить с цитатой 

Prezioso & Marvin / Let Me Stay
Жангр: Italodance
Страна-производитель диска: Германия
Год издания: 2000
Издатель (лейбл): Stereophonic
Номер по каталогу: 74321 74660 2
Страна: Италия
Аудиокодек: FLAC (*.flac)
Тип рипа: image+.cue
Битрейт аудио: lossless
Продолжительность: 00:15:14
Источник (релизер): Собственный рип
Наличие сканов в содержимом раздачи: да (PNG 600 DPI)
Треклист:
1. Let Me Stay (Radio Edit)
2. Let Me Stay (Extended Mix)
3. Let Me Stay (Ce Pensa Giò Mix)
Код:
X Lossless Decoder version 20130127 (142.3)
XLD extraction logfile from 2013-03-08 03:08:11 +0100
Prezioso & Marvin / Let Me Stay
Used drive : MATSHITA DVD-R   UJ-898 (revision HE13)
Media type : Pressed CD
Ripper mode             : XLD Secure Ripper
Disable audio cache     : OK for the drive with a cache less than 1375KiB
Make use of C2 pointers : NO
Read offset correction  : 102
Max retry count         : 100
Gap status              : Analyzed, Appended
TOC of the extracted CD
     Track |   Start  |  Length  | Start sector | End sector
    ---------------------------------------------------------
        1  | 00:00:32 | 03:28:00 |        32    |    15631
        2  | 03:28:32 | 06:35:50 |     15632    |    45306
        3  | 10:04:07 | 05:10:25 |     45307    |    68581
AccurateRip Summary (DiscID: 0001fa11-0006bcc9-11039203)
    Track 01 : OK (v1, confidence 4/4)
    Track 02 : OK (v1, confidence 4/4)
    Track 03 : OK (v1, confidence 4/4)
        ->All tracks accurately ripped.
All Tracks
    Filename : Let Me Stay.flac
    CRC32 hash               : 469336F2
    CRC32 hash (skip zero)   : C5CC7FA6
    Statistics
        Read error                           : 0
        Jitter error (maybe fixed)           : 0
        Retry sector count                   : 0
        Damaged sector count                 : 0
Track 01
    Pre-gap length : 00:02:32
    CRC32 hash               : F0172590
    CRC32 hash (skip zero)   : 2DCCDC2B
    AccurateRip v1 signature : 5E623751
    AccurateRip v2 signature : 653A6B69
        ->Accurately ripped (v1, confidence 4/4)
    Statistics
        Read error                           : 0
        Jitter error (maybe fixed)           : 0
        Retry sector count                   : 0
        Damaged sector count                 : 0
Track 02
    Pre-gap length : 00:01:37
    CRC32 hash               : 342E17A6
    CRC32 hash (skip zero)   : BA85D119
    AccurateRip v1 signature : 65A3E56A
    AccurateRip v2 signature : E36E24FB
        ->Accurately ripped (v1, confidence 4/4)
    Statistics
        Read error                           : 0
        Jitter error (maybe fixed)           : 0
        Retry sector count                   : 0
        Damaged sector count                 : 0
Track 03
    Pre-gap length : 00:00:70
    CRC32 hash               : DB75F152
    CRC32 hash (skip zero)   : CD5D54C3
    AccurateRip v1 signature : A5EC973E
    AccurateRip v2 signature : 4D0C1769
        ->Accurately ripped (v1, confidence 4/4)
    Statistics
        Read error                           : 0
        Jitter error (maybe fixed)           : 0
        Retry sector count                   : 0
        Damaged sector count                 : 0
No errors occurred
End of status report
Код:
TITLE "Let Me Stay"
PERFORMER "Prezioso & Marvin"
CATALOG 0743217466022
REM GENRE "Italodance"
REM DATE "2000-03-27T00:00:00Z"
REM DISCNUMBER 1
REM TOTALDISCS 1
REM DISCID 11039203
FILE "Let Me Stay.flac" WAVE
  TRACK 01 AUDIO
    TITLE "Let Me Stay (Radio Edit)"
    PERFORMER "Prezioso & Marvin"
    SONGWRITER "Andrea Prezioso, Giorgio Prezioso, Alessandro Moschini & Paolo Sandrini"
    ISRC DEN310000172
    INDEX 00 00:00:00
    INDEX 01 00:00:32
  TRACK 02 AUDIO
    TITLE "Let Me Stay (Extended Mix)"
    PERFORMER "Prezioso & Marvin"
    SONGWRITER "Andrea Prezioso, Giorgio Prezioso, Alessandro Moschini & Paolo Sandrini"
    ISRC DEN310000168
    INDEX 00 03:26:70
    INDEX 01 03:28:32
  TRACK 03 AUDIO
    TITLE "Let Me Stay (Ce Pensa Giò Mix)"
    PERFORMER "Prezioso & Marvin"
    SONGWRITER "Andrea Prezioso, Giorgio Prezioso, Alessandro Moschini & Paolo Sandrini"
    ISRC DEN310000170
    INDEX 00 10:03:12
    INDEX 01 10:04:07
Правила, инструкции, FAQ!!!
Торрент  Добавлен [23 май 2019, 20:05] Скачать торрент Магнет ссылка
Скачать торрент
[ Размер 11.82 КБ / Просмотров 3 ]

Статус
Проверен 
 
Размер  140.76 МБ
Приватный: Нет (DHT включён)
.torrent скачан  0
Как залить торрент? | Как скачать Torrent? | Ошибка в торренте? Качайте магнет  


     Отправить личное сообщение
   
Страница 1 из 1
Показать сообщения за:  Поле сортировки  
Начать новую тему Ответить на тему


Сейчас этот форум просматривают: нет зарегистрированных пользователей и гости: 0


Вы не можете начинать темы
Вы не можете отвечать на сообщения
Вы не можете редактировать свои сообщения
Вы не можете удалять свои сообщения
Вы не можете добавлять вложения

Перейти:  
Ресурс не предоставляет электронные версии произведений, а занимается лишь коллекционированием и каталогизацией ссылок, присылаемых и публикуемых на форуме нашими читателями. Если вы являетесь правообладателем какого-либо представленного материала и не желаете чтобы ссылка на него находилась в нашем каталоге, свяжитесь с нами и мы незамедлительно удалим её. Файлы для обмена на трекере предоставлены пользователями сайта, и администрация не несёт ответственности за их содержание. Просьба не заливать файлы, защищенные авторскими правами, а также файлы нелегального содержания!
cron