Начать новую тему Ответить на тему
Статистика раздачи
Размер: 758.03 МБ | Добавлен: 23 май 2019, 20:07 | Скачали: 0
Сидеров: 0  [0 байт/сек]    Личеров: 0  [0 байт/сек]
Пред. тема | След. тема 

Автор
Сообщение

СообщениеДобавлено: 23 май 2019, 20:07 

Ответить с цитатой 

Floorfilla - United Beatz Of Floorfilla (Australian Edition) [2CD]

Жанр: Italodance / Hands Up
Год выпуска диска: 2001
Производитель диска: Австралия
Аудио кодек: APE
Тип рипа: image+.cue
Битрейт аудио: lossless
Продолжительность: 1:56:37
Треклист:
1-01 Est-Ce Que...! (Enter The Arena)
1-02 Anthem #4
1-03 The Match
1-04 TR (Technoromance)
1-05 Cokemon (Cokane Monsterz)
1-06 The Hypno
1-07 Mr. Q Screams Out
1-08 Anthem #3
1-09 Le Son De Floorfilla
1-10 The Choice
1-11 A Night In Europe
1-12 The Message
1-13 Anthem #2
1-14 Jump India!
1-15 Anthem #1
1-16 Un Poco Di Buona Musica
1-17 Italo Dancer
2-01 KCB's Floorfilla Megamix
2-02 Anthem #2 (Groovegangstar Remix)
2-03 Anthem #4 (DJ Cerla Floorfilla Mix)
2-04 TR (Technoromance)
2-05 Jump India!
2-06 The Hypno
2-07 Mr Q Screams Out
2-08 Anthem #3 (DJ Cerla Floorfilla Mix)
2-09 Anthem #1
2-10 Est-Ce Que...! (Enter The Arena)
2-11 Cokemon (Cokane Monsterz)

Код:
Exact Audio Copy V0.99 prebeta 5 from 4. May 2009
EAC extraction logfile from 12. July 2010, 12:51
Floorfilla / United Beatz Of Floorfilla (Australian Edition) CD1
Used drive  : TSSTcorpCDDVDW SN-S082H   Adapter: 0  ID: 0
Read mode               : Secure
Utilize accurate stream : Yes
Defeat audio cache      : Yes
Make use of C2 pointers : No
Read offset correction                      : 6
Overread into Lead-In and Lead-Out          : No
Fill up missing offset samples with silence : Yes
Delete leading and trailing silent blocks   : No
Null samples used in CRC calculations       : Yes
Used interface                              : Installed external ASPI interface
Used output format : Monkey's Audio Lossless Encoder v3.99 DLL
Sample format      : High Lossless Compression
TOC of the extracted CD
     Track |   Start  |  Length  | Start sector | End sector
    ---------------------------------------------------------
        1  |  0:00.00 |  6:37.11 |         0    |    29785
        2  |  6:37.11 |  3:27.61 |     29786    |    45371
        3  | 10:04.72 |  0:49.39 |     45372    |    49085
        4  | 10:54.36 |  4:29.49 |     49086    |    69309
        5  | 15:24.10 |  5:44.58 |     69310    |    95167
        6  | 21:08.68 |  4:19.44 |     95168    |   114636
        7  | 25:28.37 |  3:17.58 |    114637    |   129469
        8  | 28:46.20 |  3:36.36 |    129470    |   145705
        9  | 32:22.56 |  5:05.38 |    145706    |   168618
       10  | 37:28.19 |  0:29.27 |    168619    |   170820
       11  | 37:57.46 |  4:45.24 |    170821    |   192219
       12  | 42:42.70 |  0:24.04 |    192220    |   194023
       13  | 43:06.74 |  3:26.40 |    194024    |   209513
       14  | 46:33.39 |  5:51.06 |    209514    |   235844
       15  | 52:24.45 |  4:00.19 |    235845    |   253863
       16  | 56:24.64 |  0:35.51 |    253864    |   256539
       17  | 57:00.40 |  5:11.55 |    256540    |   279919
Range status and errors
Selected range
     Filename   Floorfilla - United Beatz Of Floorfilla (Australian Edition) CD1.ape
     Peak level 100.0 %
     Range quality 100.0 %
     Test CRC C5297D12
     Copy CRC C5297D12
     Copy OK
No errors occurred
AccurateRip summary
Track  1  accurately ripped (confidence 1)  [BEE612A6]
Track  2  accurately ripped (confidence 1)  [B4DF8F6B]
Track  3  accurately ripped (confidence 1)  [443A8CD1]
Track  4  accurately ripped (confidence 1)  [B4CCED33]
Track  5  accurately ripped (confidence 1)  [6DE67419]
Track  6  accurately ripped (confidence 1)  [98DE2B93]
Track  7  accurately ripped (confidence 1)  [77D9ED8D]
Track  8  accurately ripped (confidence 1)  [8584FB91]
Track  9  accurately ripped (confidence 1)  [A5430043]
Track 10  accurately ripped (confidence 1)  [CE51CA46]
Track 11  accurately ripped (confidence 2)  [D50DA773]
Track 12  accurately ripped (confidence 1)  [0B50DC30]
Track 13  accurately ripped (confidence 1)  [B4F5D5F0]
Track 14  accurately ripped (confidence 1)  [B436F354]
Track 15  accurately ripped (confidence 1)  [150DF9A2]
Track 16  accurately ripped (confidence 1)  [DD4F7B91]
Track 17  not present in database
16 track(s) accurately ripped
 1 track(s) not present in the AccurateRip database
Some tracks could not be verified as accurate
End of status report
Код:
REM GENRE Italodance
REM DATE 2001
REM DISCID 060E9411
REM COMMENT "ExactAudioCopy v0.99pb5"
PERFORMER "Floorfilla"
TITLE "United Beatz Of Floorfilla (Australian Edition) CD1"
FILE "Floorfilla - United Beatz Of Floorfilla (Australian Edition) CD1.ape" WAVE
  TRACK 01 AUDIO
    TITLE "Est-Ce Que...! (Enter The Arena)"
    PERFORMER "Floorfilla"
    INDEX 01 00:00:00
  TRACK 02 AUDIO
    TITLE "Anthem #4"
    PERFORMER "Floorfilla"
    INDEX 01 06:37:11
  TRACK 03 AUDIO
    TITLE "The Match"
    PERFORMER "Floorfilla"
    INDEX 01 10:04:72
  TRACK 04 AUDIO
    TITLE "TR (Technoromance)"
    PERFORMER "Floorfilla"
    INDEX 01 10:54:36
  TRACK 05 AUDIO
    TITLE "Cokemon (Cokane Monsterz)"
    PERFORMER "Floorfilla"
    INDEX 01 15:24:10
  TRACK 06 AUDIO
    TITLE "The Hypno"
    PERFORMER "Floorfilla"
    INDEX 01 21:08:68
  TRACK 07 AUDIO
    TITLE "Mr Q Screams Out"
    PERFORMER "Floorfilla"
    INDEX 01 25:28:37
  TRACK 08 AUDIO
    TITLE "Anthem #3"
    PERFORMER "Floorfilla"
    INDEX 01 28:46:20
  TRACK 09 AUDIO
    TITLE "Le Son De Floorfilla"
    PERFORMER "Floorfilla"
    INDEX 01 32:22:56
  TRACK 10 AUDIO
    TITLE "The Choice"
    PERFORMER "Floorfilla"
    INDEX 01 37:28:19
  TRACK 11 AUDIO
    TITLE "A Night In Europe"
    PERFORMER "Floorfilla"
    INDEX 01 37:57:46
  TRACK 12 AUDIO
    TITLE "The Message"
    PERFORMER "Floorfilla"
    INDEX 01 42:42:70
  TRACK 13 AUDIO
    TITLE "Anthem #2"
    PERFORMER "Floorfilla"
    INDEX 01 43:06:74
  TRACK 14 AUDIO
    TITLE "Jump India!"
    PERFORMER "Floorfilla"
    INDEX 01 46:33:39
  TRACK 15 AUDIO
    TITLE "Anthem #1"
    PERFORMER "Floorfilla"
    INDEX 01 52:24:45
  TRACK 16 AUDIO
    TITLE "Un Poco Di Buona Musica"
    PERFORMER "Floorfilla"
    INDEX 01 56:24:64
  TRACK 17 AUDIO
    TITLE "Italo Dancer"
    PERFORMER "Floorfilla"
    INDEX 01 57:00:40

Код:
Exact Audio Copy V0.99 prebeta 5 from 4. May 2009
EAC extraction logfile from 12. July 2010, 13:30
Floorfilla / United Beatz Of Floorfilla (Australian Edition) CD2
Used drive  : TSSTcorpCDDVDW SN-S082H   Adapter: 0  ID: 0
Read mode               : Secure
Utilize accurate stream : Yes
Defeat audio cache      : Yes
Make use of C2 pointers : No
Read offset correction                      : 6
Overread into Lead-In and Lead-Out          : No
Fill up missing offset samples with silence : Yes
Delete leading and trailing silent blocks   : No
Null samples used in CRC calculations       : Yes
Used interface                              : Installed external ASPI interface
Used output format : Monkey's Audio Lossless Encoder v3.99 DLL
Sample format      : High Lossless Compression
TOC of the extracted CD
     Track |   Start  |  Length  | Start sector | End sector
    ---------------------------------------------------------
        1  |  0:00.00 |  9:25.49 |         0    |    42423
        2  |  9:25.49 |  5:53.05 |     42424    |    68903
        3  | 15:18.54 |  3:48.16 |     68904    |    86019
        4  | 19:06.70 |  4:10.09 |     86020    |   104778
        5  | 23:17.04 |  5:02.32 |    104779    |   127460
        6  | 28:19.36 |  3:25.03 |    127461    |   142838
        7  | 31:44.39 |  3:29.31 |    142839    |   158544
        8  | 35:13.70 |  3:52.45 |    158545    |   175989
        9  | 39:06.40 |  3:36.33 |    175990    |   192222
       10  | 42:42.73 |  6:05.40 |    192223    |   219637
       11  | 48:48.38 |  5:34.26 |    219638    |   244713
Range status and errors
Selected range
     Filename   Floorfilla - United Beatz Of Floorfilla (Australian Edition) CD2.ape
     Peak level 99.9 %
     Range quality 99.9 %
     Test CRC F8F54885
     Copy CRC F8F54885
     Copy OK
No errors occurred
AccurateRip summary
Track  1  accurately ripped (confidence 2)  [9A9F0848]
Track  2  accurately ripped (confidence 1)  [3835B31C]
Track  3  accurately ripped (confidence 1)  [4B2AA243]
Track  4  accurately ripped (confidence 1)  [3F17C539]
Track  5  accurately ripped (confidence 1)  [7B8EF901]
Track  6  accurately ripped (confidence 1)  [335CCA7F]
Track  7  accurately ripped (confidence 1)  [6FFC22FF]
Track  8  accurately ripped (confidence 1)  [FBEE8B00]
Track  9  accurately ripped (confidence 1)  [1D9DF1B4]
Track 10  accurately ripped (confidence 1)  [2F119E6D]
Track 11  accurately ripped (confidence 1)  [208EF7D7]
All tracks accurately ripped
End of status report
Код:
REM GENRE Italodance
REM DATE 2001
REM DISCID 950CBE0B
REM COMMENT "ExactAudioCopy v0.99pb5"
PERFORMER "Floorfilla"
TITLE "United Beatz Of Floorfilla (Australian Edition) CD2"
FILE "Floorfilla - United Beatz Of Floorfilla (Australian Edition) CD2.ape" WAVE
  TRACK 01 AUDIO
    TITLE "KCB's Floorfilla Megamix"
    PERFORMER "Floorfilla"
    INDEX 01 00:00:00
  TRACK 02 AUDIO
    TITLE "Anthem #2 (Groovegangstar Remix)"
    PERFORMER "Floorfilla"
    INDEX 01 09:25:49
  TRACK 03 AUDIO
    TITLE "Anthem #4 (DJ Cerla Floorfilla Mix)"
    PERFORMER "Floorfilla"
    INDEX 01 15:18:54
  TRACK 04 AUDIO
    TITLE "TR (Technoromance)"
    PERFORMER "Floorfilla"
    INDEX 01 19:06:70
  TRACK 05 AUDIO
    TITLE "Jump India!"
    PERFORMER "Floorfilla"
    INDEX 01 23:17:04
  TRACK 06 AUDIO
    TITLE "The Hypno"
    PERFORMER "Floorfilla"
    INDEX 01 28:19:36
  TRACK 07 AUDIO
    TITLE "Mr Q Screams Out"
    PERFORMER "Floorfilla"
    INDEX 01 31:44:39
  TRACK 08 AUDIO
    TITLE "Anthem #3 (DJ Cerla Floorfilla Mix)"
    PERFORMER "Floorfilla"
    INDEX 01 35:13:70
  TRACK 09 AUDIO
    TITLE "Anthem #1"
    PERFORMER "Floorfilla"
    INDEX 01 39:06:40
  TRACK 10 AUDIO
    TITLE "Est-Ce Que....! (Enter The Arena)"
    PERFORMER "Floorfilla"
    INDEX 01 42:42:73
  TRACK 11 AUDIO
    TITLE "Cokemon (Cokane Monsterz)"
    PERFORMER "Floorfilla"
    INDEX 01 48:48:38

Код:
Floorfilla - United Beatz Of Floorfilla (Australian Edition) (2001) [2CD]
  Cover\Back.jpg
  Cover\Booklet-1.jpg
  Cover\Booklet-2.jpg
  Cover\CD-1.jpg
  Cover\CD-2.jpg
  Cover\Inlay.jpg
  Floorfilla - United Beatz Of Floorfilla (Australian Edition) CD1.ape
  Floorfilla - United Beatz Of Floorfilla (Australian Edition) CD1.cue
  Floorfilla - United Beatz Of Floorfilla (Australian Edition) CD1.log
  Floorfilla - United Beatz Of Floorfilla (Australian Edition) CD2.ape
  Floorfilla - United Beatz Of Floorfilla (Australian Edition) CD2.cue
  Floorfilla - United Beatz Of Floorfilla (Australian Edition) CD2.log
  Folder.jpg
  Tau Analyzer\TA-1-00.png
  Tau Analyzer\TA-1-01.png
  Tau Analyzer\TA-1-02.png
  Tau Analyzer\TA-1-03.png
  Tau Analyzer\TA-1-04.png
  Tau Analyzer\TA-1-05.png
  Tau Analyzer\TA-1-06.png
  Tau Analyzer\TA-1-07.png
  Tau Analyzer\TA-1-08.png
  Tau Analyzer\TA-1-09.png
  Tau Analyzer\TA-1-10.png
  Tau Analyzer\TA-1-11.png
  Tau Analyzer\TA-1-12.png
  Tau Analyzer\TA-1-13.png
  Tau Analyzer\TA-1-14.png
  Tau Analyzer\TA-1-15.png
  Tau Analyzer\TA-1-16.png
  Tau Analyzer\TA-1-17.png
  Tau Analyzer\TA-2-00.png
  Tau Analyzer\TA-2-01.png
  Tau Analyzer\TA-2-02.png
  Tau Analyzer\TA-2-03.png
  Tau Analyzer\TA-2-04.png
  Tau Analyzer\TA-2-05.png
  Tau Analyzer\TA-2-06.png
  Tau Analyzer\TA-2-07.png
  Tau Analyzer\TA-2-08.png
  Tau Analyzer\TA-2-09.png
  Tau Analyzer\TA-2-10.png
  Tau Analyzer\TA-2-11.png

Правила, инструкции, FAQ!!!
Торрент  Добавлен [23 май 2019, 20:07] Скачать торрент Магнет ссылка
Скачать торрент
[ Размер 17.78 КБ / Просмотров 6 ]

Статус
Проверен 
 
Размер  758.03 МБ
Приватный: Нет (DHT включён)
.torrent скачан  0
Как залить торрент? | Как скачать Torrent? | Ошибка в торренте? Качайте магнет  


     Отправить личное сообщение
   
Страница 1 из 1
Показать сообщения за:  Поле сортировки  
Начать новую тему Ответить на тему


Сейчас этот форум просматривают: нет зарегистрированных пользователей и гости: 0


Вы не можете начинать темы
Вы не можете отвечать на сообщения
Вы не можете редактировать свои сообщения
Вы не можете удалять свои сообщения
Вы не можете добавлять вложения

Перейти:  
Ресурс не предоставляет электронные версии произведений, а занимается лишь коллекционированием и каталогизацией ссылок, присылаемых и публикуемых на форуме нашими читателями. Если вы являетесь правообладателем какого-либо представленного материала и не желаете чтобы ссылка на него находилась в нашем каталоге, свяжитесь с нами и мы незамедлительно удалим её. Файлы для обмена на трекере предоставлены пользователями сайта, и администрация не несёт ответственности за их содержание. Просьба не заливать файлы, защищенные авторскими правами, а также файлы нелегального содержания!
cron