Начать новую тему Ответить на тему
Статистика раздачи
Размер: 4.21 ГБ | Добавлен: 10 сен 2019, 23:28 | Скачали: 0
Сидеров: 0  [0 байт/сек]    Личеров: 1  [0 байт/сек]
Пред. тема | След. тема 

Автор
Сообщение

СообщениеДобавлено: 10 сен 2019, 23:28 

Ответить с цитатой 

Inna feat. J. Balvin - Cola Song
Жанр: Pop
Продолжительность: 00:03:45
Год выпуска: 2014
Доп. информация: Скачать рип, размером на порядок меньше - https://rutracker.org/forum/viewtopic.php?t=4750290
Качество: Master
Разрешение видео/развертка: 1080p
Контейнер: MOV
Видео кодек: APCH
Аудио кодек: PCM
Видео: Apple ProRes 422 HQ, 1920x1080p, 159 Mbps, 23.976 fps
Аудио: LPCM, 1536 kbps, 48000 Hz, 2 channels (stereo)
Код:
General
Complete name               : C:\Users\Admin\Downloads\Inna & J Balvin - Cola Song (Master-ProRes-1080p-SkyBlue).mov
Format                      : MPEG-4
Format profile              : QuickTime
Codec ID                    : qt   2005.03 (qt  )
File size                   : 4.21 GiB
Duration                    : 3 min 44 s
Overall bit rate mode       : Variable
Overall bit rate            : 161 Mb/s
Encoded date                : UTC 2014-04-01 16:56:50
Tagged date                 : UTC 2014-04-01 16:59:12
Writing library             : Apple QuickTime
Media/UUID                  : C25275F8-7214-4514-AF38-AA2A8E4A753E
Video
ID                          : 1
Format                      : ProRes
Format version              : Version 0
Format profile              : 422 HQ
Codec ID                    : apch
Duration                    : 3 min 44 s
Bit rate mode               : Variable
Bit rate                    : 159 Mb/s
Width                       : 1 920 pixels
Clean aperture width        : 1 888 pixels
Height                      : 1 080 pixels
Clean aperture height       : 1 062 pixels
Display aspect ratio        : 16:9
Clean aperture display aspe : 16:9
Frame rate mode             : Constant
Frame rate                  : 23.976 (23976/1000) FPS
Color space                 : YUV
Chroma subsampling          : 4:2:2
Scan type                   : Progressive
Bits/(Pixel*Frame)          : 3.200
Stream size                 : 4.16 GiB (99%)
Writing library             : Apple
Language                    : English
Encoded date                : UTC 2014-04-01 16:56:50
Tagged date                 : UTC 2014-04-01 16:59:12
Color primaries             : BT.709
Transfer characteristics    : BT.709
Matrix coefficients         : BT.709
Audio
ID                          : 2
Format                      : PCM
Format settings             : Little / Signed
Codec ID                    : sowt
Duration                    : 3 min 44 s
Bit rate mode               : Constant
Bit rate                    : 1 536 kb/s
Channel(s)                  : 2 channels
Channel layout              : L R
Sampling rate               : 48.0 kHz
Bit depth                   : 16 bits
Stream size                 : 41.2 MiB (1%)
Language                    : English
Encoded date                : UTC 2014-04-01 16:56:50
Tagged date                 : UTC 2014-04-01 16:59:12
Other
ID                          : 3
Type                        : Time code
Format                      : QuickTime TC
Duration                    : 3 min 44 s
Time code of first frame    : 01:00:00:00
Time code, striped          : Yes
Language                    : English
Encoded date                : UTC 2014-04-01 16:59:12
Tagged date                 : UTC 2014-04-01 16:59:12
Правила, инструкции, FAQ!!!
Торрент  Добавлен [10 сен 2019, 23:28] Скачать торрент Магнет ссылка
Скачать торрент
[ Размер 21.49 КБ / Просмотров 10 ]

Статус
Проверен 
 
Размер  4.21 ГБ
Приватный: Нет (DHT включён)
.torrent скачан  0
Как залить торрент? | Как скачать Torrent? | Ошибка в торренте? Качайте магнет  


     Отправить личное сообщение
   
Страница 1 из 1
Показать сообщения за:  Поле сортировки  
Начать новую тему Ответить на тему


Сейчас этот форум просматривают: нет зарегистрированных пользователей и гости: 2


Вы не можете начинать темы
Вы не можете отвечать на сообщения
Вы не можете редактировать свои сообщения
Вы не можете удалять свои сообщения
Вы не можете добавлять вложения

Перейти:  
Ресурс не предоставляет электронные версии произведений, а занимается лишь коллекционированием и каталогизацией ссылок, присылаемых и публикуемых на форуме нашими читателями. Если вы являетесь правообладателем какого-либо представленного материала и не желаете чтобы ссылка на него находилась в нашем каталоге, свяжитесь с нами и мы незамедлительно удалим её. Файлы для обмена на трекере предоставлены пользователями сайта, и администрация не несёт ответственности за их содержание. Просьба не заливать файлы, защищенные авторскими правами, а также файлы нелегального содержания!