Начать новую тему Ответить на тему
Статистика раздачи
Размер: 209.49 МБ | Добавлен: 11 июл 2019, 11:58 | Скачали: 0
Сидеров: 0  [0 байт/сек]    Личеров: 0  [0 байт/сек]
Пред. тема | След. тема 

Автор
Сообщение

СообщениеДобавлено: 11 июл 2019, 11:58 

Ответить с цитатой 

Patience / Dizzy Spells
Жанр: Indie Pop
Носитель: CD
Страна-производитель диска (релиза): USA
Год издания: 2019
Издатель (лейбл): Night School
Номер по каталогу: LSSN065
Страна исполнителя (группы): USA
Аудиокодек: FLAC (*.flac)
Тип рипа: image+.cue
Продолжительность: 00:31:58
Источник: собственный рип
Наличие сканов в содержимом раздачи: нет
Треклист:
01. The Girls Are Chewing Gum (03:24)
02. Living Things Don't Last (03:00)
03. White of an Eye (03:26)
04. No Roses (03:02)
05. Aerosol (03:16)
06. The Church (02:59)
07. Voices In the Sand (02:54)
08. Moral Damage (03:42)
09. The Pressure (03:47)
10. Silent House (02:21)
Код:
Exact Audio Copy V1.3 from 2. September 2016
EAC extraction logfile from 24. June 2019, 5:40
Patience  / Dizzy Spells
Used drive  : PLDS    DVD-RW DA8AESH   Adapter: 1  ID: 0
Read mode               : Secure
Utilize accurate stream : Yes
Defeat audio cache      : Yes
Make use of C2 pointers : No
Read offset correction                      : 6
Overread into Lead-In and Lead-Out          : No
Fill up missing offset samples with silence : Yes
Delete leading and trailing silent blocks   : No
Null samples used in CRC calculations       : Yes
Used interface                              : Native Win32 interface for Win NT & 2000
Used output format              : User Defined Encoder
Selected bitrate                : 1024 kBit/s
Quality                         : High
Add ID3 tag                     : No
Command line compressor         : C:\Program Files\Exact Audio Copy\Flac\flac.exe
Additional command line options : -8 -V -T "ARTIST=%artist%" -T "TITLE=%title%" -T "ALBUM=%albumtitle%" -T "DATE=%year%" -T "TRACKNUMBER=%tracknr%" -T "GENRE=%genre%" -T "PERFORMER=%albuminterpret%" -T "COMPOSER=%composer%" %haslyrics%--tag-from-file=LYRICS="%lyricsfile%"%haslyrics% -T "ALBUMARTIST=%albumartist%" -T "DISCNUMBER=%cdnumber%" -T "TOTALDISCS=%totalcds%" -T "TOTALTRACKS=%numtracks%" -T "COMMENT=%comment%" %source% -o %dest%
TOC of the extracted CD
     Track |   Start  |  Length  | Start sector | End sector
    ---------------------------------------------------------
        1  |  0:00.00 |  3:24.04 |         0    |    15303
        2  |  3:24.04 |  3:00.24 |     15304    |    28827
        3  |  6:24.28 |  3:26.55 |     28828    |    44332
        4  |  9:51.08 |  3:02.48 |     44333    |    58030
        5  | 12:53.56 |  3:16.68 |     58031    |    72798
        6  | 16:10.49 |  2:59.51 |     72799    |    86274
        7  | 19:10.25 |  2:54.06 |     86275    |    99330
        8  | 22:04.31 |  3:42.42 |     99331    |   116022
        9  | 25:46.73 |  3:47.68 |    116023    |   133115
       10  | 29:34.66 |  2:21.44 |    133116    |   143734
Range status and errors
Selected range
     Filename C:\Patience - Dizzy Spells\Patience  - Dizzy Spells.wav
     Peak level 97.6 %
     Extraction speed 3.1 X
     Range quality 100.0 %
     Test CRC 979D3EB8
     Copy CRC 979D3EB8
     Copy OK
No errors occurred
AccurateRip summary
Track  1  accurately ripped (confidence 1)  [EF7DDD58]  (AR v2)
Track  2  accurately ripped (confidence 1)  [5BE7422B]  (AR v2)
Track  3  accurately ripped (confidence 1)  [5EBCC039]  (AR v2)
Track  4  accurately ripped (confidence 1)  [B87803A4]  (AR v2)
Track  5  accurately ripped (confidence 1)  [D6993487]  (AR v2)
Track  6  accurately ripped (confidence 1)  [D5A61233]  (AR v2)
Track  7  accurately ripped (confidence 1)  [0A3C6328]  (AR v2)
Track  8  accurately ripped (confidence 1)  [83CAE0D0]  (AR v2)
Track  9  accurately ripped (confidence 1)  [E2BE8910]  (AR v2)
Track 10  accurately ripped (confidence 1)  [DADA7FEC]  (AR v2)
All tracks accurately ripped
End of status report
---- CUETools DB Plugin V2.1.6
[CTDB TOCID: sKxEt4YEczL11MGFLiTA4HcjvY8-] found
Submit result: already submitted
Track | CTDB Status
  1   | (3/3) Accurately ripped
  2   | (3/3) Accurately ripped
  3   | (3/3) Accurately ripped
  4   | (3/3) Accurately ripped
  5   | (3/3) Accurately ripped
  6   | (3/3) Accurately ripped
  7   | (3/3) Accurately ripped
  8   | (3/3) Accurately ripped
  9   | (3/3) Accurately ripped
 10   | (3/3) Accurately ripped
==== Log checksum F67F60FD009AABCF0A13B17C1E172FCF6BC0E26985E69BFF0ACDE27BCBAF258B ====
Код:
REM GENRE Synthpop
REM DATE 2019
REM DISCID 8D077C0A
REM COMMENT "ExactAudioCopy v1.3"
PERFORMER "Patience "
TITLE "Dizzy Spells"
REM COMPOSER ""
FILE "Patience  - Dizzy Spells.flac" WAVE
  TRACK 01 AUDIO
    TITLE "The Girls Are Chewing Gum"
    PERFORMER "Patience "
    REM COMPOSER ""
    ISRC GBCK41200335
    INDEX 01 00:00:00
  TRACK 02 AUDIO
    TITLE "Living Things Don't Last"
    PERFORMER "Patience "
    REM COMPOSER ""
    ISRC GBCK41200336
    INDEX 01 03:24:04
  TRACK 03 AUDIO
    TITLE "White of an Eye"
    PERFORMER "Patience "
    REM COMPOSER ""
    ISRC GBCK41600260
    INDEX 01 06:24:28
  TRACK 04 AUDIO
    TITLE "No Roses "
    PERFORMER "Patience "
    REM COMPOSER ""
    ISRC GBCK41200337
    INDEX 01 09:51:08
  TRACK 05 AUDIO
    TITLE "Aerosol "
    PERFORMER "Patience "
    REM COMPOSER ""
    ISRC GBCK41200338
    INDEX 01 12:53:56
  TRACK 06 AUDIO
    TITLE "The Church"
    PERFORMER "Patience "
    REM COMPOSER ""
    ISRC GBCK41200218
    INDEX 01 16:10:49
  TRACK 07 AUDIO
    TITLE "Voices In the Sand "
    PERFORMER "Patience "
    REM COMPOSER ""
    ISRC GBCK41200339
    INDEX 01 19:10:25
  TRACK 08 AUDIO
    TITLE "Moral Damage "
    PERFORMER "Patience "
    REM COMPOSER ""
    ISRC GBCK41200340
    INDEX 01 22:04:31
  TRACK 09 AUDIO
    TITLE "The Pressure "
    PERFORMER "Patience "
    REM COMPOSER ""
    ISRC GBCK41200242
    INDEX 01 25:46:73
  TRACK 10 AUDIO
    TITLE "Silent House"
    PERFORMER "Patience "
    REM COMPOSER ""
    ISRC GBCK41200341
    INDEX 01 29:34:66
Правила, инструкции, FAQ!!!
Торрент  Добавлен [11 июл 2019, 11:58] Скачать торрент Магнет ссылка
Скачать торрент
[ Размер 17.03 КБ / Просмотров 8 ]

Статус
Проверен 
 
Размер  209.49 МБ
Приватный: Нет (DHT включён)
.torrent скачан  0
Как залить торрент? | Как скачать Torrent? | Ошибка в торренте? Качайте магнет  


     Отправить личное сообщение
   
Страница 1 из 1
Показать сообщения за:  Поле сортировки  
Начать новую тему Ответить на тему


Сейчас этот форум просматривают: нет зарегистрированных пользователей и гости: 0


Вы не можете начинать темы
Вы не можете отвечать на сообщения
Вы не можете редактировать свои сообщения
Вы не можете удалять свои сообщения
Вы не можете добавлять вложения

Перейти:  
Ресурс не предоставляет электронные версии произведений, а занимается лишь коллекционированием и каталогизацией ссылок, присылаемых и публикуемых на форуме нашими читателями. Если вы являетесь правообладателем какого-либо представленного материала и не желаете чтобы ссылка на него находилась в нашем каталоге, свяжитесь с нами и мы незамедлительно удалим её. Файлы для обмена на трекере предоставлены пользователями сайта, и администрация не несёт ответственности за их содержание. Просьба не заливать файлы, защищенные авторскими правами, а также файлы нелегального содержания!
cron