Начать новую тему Ответить на тему
Статистика раздачи
Размер: 1.21 ГБ | Добавлен: 08 июн 2019, 08:56 | Скачали: 1
Сидеров: 0  [0 байт/сек]    Личеров: 0  [0 байт/сек]
Пред. тема | След. тема 

Автор
Сообщение

СообщениеДобавлено: 08 июн 2019, 08:56 

Ответить с цитатой 

Hummel · Brahms · Schönberg - Verklarte Nacht


Формат записи/Источник записи: [TR24][OF]
Наличие водяных знаков: Нет
Год издания: 2019
Жанр: Classical
Издатель (лейбл): Paraty
Продолжительность: 01:10:40
Наличие сканов в содержимом раздачи: Буклет PDF
Контейнер: FLAC (*.flac)
Тип рипа: tracks
Разрядность: 24/96
Формат: PCM
Количество каналов: 2.0
Источник (релизер): highresaudio.com
Треклист
Johann Nepomuk Hummel (1778 - 1837)
Piano Trio No. 2 in F, Op. 22

01. I. Allegro moderato
02. II. Andante con variazioni
03. III. Rondo alla turca
Johannes Brahms (1833 - 1897)
Piano Trio No. 2 in C, Op. 87

04. I. Allegro moderato
05. II. Andante con moto
06. III. Scherzo. Presto
07. IV. Finale. Allegro giocoso
Arnold Schönberg (1874 - 1951)
Verklärte Nacht, Op. 4 (Arr. for Piano Trio)

08. I. Sehr langsam
09. II. Breiter
10. III. Schwer betont
11. IV. Sehr breit und langsam
12. V. Sehr ruhig
Barbara Baltussen, piano
Pieter Jansen
, violin
Francis Mourey, cello
Код:
foobar2000 1.4 / Dynamic Range Meter 1.1.1
log date: 2019-05-31 06:16:33
--------------------------------------------------------------------------------
Analyzed: Trio Khaldei / Verklärte Nacht
--------------------------------------------------------------------------------
DR         Peak         RMS     Duration Track
--------------------------------------------------------------------------------
DR15      -0.46 dB   -20.78 dB      5:57 01-Piano Trio No. 2 in F, Op. 22: I. Allegro moderato
DR14      -1.82 dB   -22.16 dB      4:15 02-Piano Trio No. 2 in F, Op. 22: II. Andante con variazioni
DR14      -0.08 dB   -18.48 dB      3:29 03-Piano Trio No. 2 in F, Op. 22: III. Rondo alla turca
DR13      -0.57 dB   -18.71 dB      9:18 04-Piano Trio No. 2 in C, Op. 87: I. Allegro moderato
DR15      -0.92 dB   -22.25 dB      8:09 05-Piano Trio No. 2 in C, Op. 87: II. Andante con moto
DR14      -2.80 dB   -21.25 dB      5:00 06-Piano Trio No. 2 in C, Op. 87: III. Scherzo. Presto
DR14      -0.10 dB   -19.03 dB      6:07 07-Piano Trio No. 2 in C, Op. 87: IV. Finale. Allegro giocoso
DR13      -0.05 dB   -20.25 dB      6:36 08-Verklärte Nacht, Op. 4: I. Sehr langsam
DR12      -0.62 dB   -17.70 dB      5:51 09-Verklärte Nacht, Op. 4: II. Breiter
DR12      -0.73 dB   -18.83 dB      2:14 10-Verklärte Nacht, Op. 4: III. Schwer betont
DR13      -0.77 dB   -20.43 dB      9:43 11-Verklärte Nacht, Op. 4: IV. Sehr breit und langsam
DR15      -1.40 dB   -23.37 dB      4:05 12-Verklärte Nacht, Op. 4: V. Sehr ruhig
--------------------------------------------------------------------------------
Number of tracks:  12
Official DR value: DR14
Samplerate:        96000 Hz
Channels:          2
Bits per sample:   24
Bitrate:           2362 kbps
Codec:             FLAC
================================================================================
This album is a double journey through time. On one hand, the three pieces selected span a century in the history of the Viennese piano trio; Hummel’s work, composed in 1799, keeps a foot firmly in the classical era; Brahms’ second piano trio, written in 1882, is a crown jewel of Viennese romanticism, and Schoenberg’s Verklärte Nacht is a perfect example of the atmosphere that reigned in the city at the turn of the century. In addition, the three works mirror the intensities of the day. Hummel’s light and sparkling trio evokes the morning, Brahms’ resplendent and well-worked piece represents the afternoon and evening and Schoenberg’s composition, as the title already indicates, relates to the dark, moonlit night.
Правила, инструкции, FAQ!!!
Торрент  Добавлен [08 июн 2019, 08:56] Скачать торрент Магнет ссылка
Скачать торрент
[ Размер 13.68 КБ / Просмотров 6 ]

Статус
Проверен 
 
Размер  1.21 ГБ
Приватный: Нет (DHT включён)
.torrent скачан  1
Как залить торрент? | Как скачать Torrent? | Ошибка в торренте? Качайте магнет  


     Отправить личное сообщение
   
Страница 1 из 1
Показать сообщения за:  Поле сортировки  
Начать новую тему Ответить на тему


Сейчас этот форум просматривают: нет зарегистрированных пользователей и гости: 0


Вы не можете начинать темы
Вы не можете отвечать на сообщения
Вы не можете редактировать свои сообщения
Вы не можете удалять свои сообщения
Вы не можете добавлять вложения

Перейти:  
Ресурс не предоставляет электронные версии произведений, а занимается лишь коллекционированием и каталогизацией ссылок, присылаемых и публикуемых на форуме нашими читателями. Если вы являетесь правообладателем какого-либо представленного материала и не желаете чтобы ссылка на него находилась в нашем каталоге, свяжитесь с нами и мы незамедлительно удалим её. Файлы для обмена на трекере предоставлены пользователями сайта, и администрация не несёт ответственности за их содержание. Просьба не заливать файлы, защищенные авторскими правами, а также файлы нелегального содержания!
cron