Начать новую тему Ответить на тему
Статистика раздачи
Размер: 163.88 МБ | Добавлен: 23 май 2019, 20:06 | Скачали: 0
Сидеров: 0  [0 байт/сек]    Личеров: 0  [0 байт/сек]
Пред. тема | След. тема 

Автор
Сообщение

СообщениеДобавлено: 23 май 2019, 20:06 

Ответить с цитатой 

DJ Zuul – It's The Day After The Party (Maxi CD)
Жанр: House, Euro House
Страна-производитель диска: Germany
Год издания: 1997
Издатель (лейбл): Orbit Records
Номер по каталогу: 8 94365 2
Аудиокодек: FLAC (*.flac)
Тип рипа: image+.cue
Битрейт аудио: lossless
Продолжительность: 18:33
Источник (релизер): Собственный рип
Наличие сканов в содержимом раздачи: да
Треклист:
1 It's The Day After The Party (Radio Edit) 3:26
2 It's The Day After The Party (Three Steps Mix) 5:03
3 It's The Day After The Party (Two Steps Mix) 5:07
4 It's The Day After The Party (One Step Mix) 4:52
Код:
Exact Audio Copy V1.0 beta 2 from 29. April 2011
Отчёт EAC об извлечении, выполненном 1. апреля 2012, 19:18
DJ Zuul / It's The Day After The Party
Дисковод: Optiarc DVD RW AD-7200S   Adapter: 2  ID: 0
Режим чтения                 : Достоверность
Использование точного потока : Да
Отключение кэша аудио        : Да
Использование указателей C2  : Нет
Коррекция смещения при чтении                     : 48
Способность читать области Lead-in и Lead-out     : Нет
Заполнение пропущенных сэмплов тишиной            : Да
Удаление блоков с тишиной в начале и конце        : Нет
При вычислениях CRC использовались нулевые сэмплы : Да
Интерфейс                                         : Встроенный Win32-интерфейс для Win NT/2000
Выходной формат : Внутренние WAV-операции
Формат сэмплов  : 44.100 Гц; 16 бит; стерео
TOC извлечённого CD
     Трек |   Старт  | Длительность | Начальный сектор | Конечный сектор
    ---------------------------------------------------------------------
       1  |  0:00.00 |    3:28.02   |           0      |      15601
       2  |  3:28.02 |    5:05.43   |       15602      |      38519
       3  |  8:33.45 |    5:08.54   |       38520      |      61673
       4  | 13:42.24 |    4:51.13   |       61674      |      83511
Характеристики диапазона извлечения и сообщения об ошибках
Выбранный диапазон
     Имя файла C:\Documents and Settings\vova\Рабочий стол\DJ Zuul - It's The Day After The Party.wav
     Пиковый уровень 99.1 %
     Скорость извлечения 3.0 X
     Качество диапазона 100.0 %
     CRC теста 585BE202
     CRC копии 585BE202
     Копирование... OK
Ошибок не произошло
AccurateRip: сводка
Трек  1  : извлечено точно (доверие 1)  [A1D58670]  (AR v1)
Трек  2  : извлечено точно (доверие 1)  [EBF3FE64]  (AR v1)
Трек  3  : извлечено точно (доверие 1)  [2C8E2FF3]  (AR v1)
Трек  4  : извлечено точно (доверие 1)  [3A9AC030]  (AR v1)
Все треки извлечены точно
Конец отчёта
Код:
REM GENRE Techno
REM DATE 1997
REM DISCID 1E045904
REM COMMENT "ExactAudioCopy v1.0b2"
PERFORMER "DJ Zuul"
TITLE "It's The Day After The Party"
FILE "DJ Zuul - It's The Day After The Party.wav" WAVE
  TRACK 01 AUDIO
    TITLE "It's The Day After The Party (Radio Edit)"
    PERFORMER "DJ Zuul"
    INDEX 01 00:00:00
  TRACK 02 AUDIO
    TITLE "It's The Day After The Party (Three Steps Mix)"
    PERFORMER "DJ Zuul"
    INDEX 00 03:26:02
    INDEX 01 03:28:02
  TRACK 03 AUDIO
    TITLE "It's The Day After The Party (Two Steps Mix)"
    PERFORMER "DJ Zuul"
    INDEX 00 08:31:45
    INDEX 01 08:33:45
  TRACK 04 AUDIO
    TITLE "It's The Day After The Party (One Step Mix)"
    PERFORMER "DJ Zuul"
    INDEX 00 13:40:24
    INDEX 01 13:42:24
Доп. информация: http://www.discogs.com/DJ-Zuul-Its-The-Day-After-The-Party/release/567931
Правила, инструкции, FAQ!!!
Торрент  Добавлен [23 май 2019, 20:06] Скачать торрент Магнет ссылка
Скачать торрент
[ Размер 1.34 КБ / Просмотров 5 ]

Статус
Проверен 
 
Размер  163.88 МБ
Приватный: Нет (DHT включён)
.torrent скачан  0
Как залить торрент? | Как скачать Torrent? | Ошибка в торренте? Качайте магнет  


     Отправить личное сообщение
   
Страница 1 из 1
Показать сообщения за:  Поле сортировки  
Начать новую тему Ответить на тему


Сейчас этот форум просматривают: нет зарегистрированных пользователей и гости: 0


Вы не можете начинать темы
Вы не можете отвечать на сообщения
Вы не можете редактировать свои сообщения
Вы не можете удалять свои сообщения
Вы не можете добавлять вложения

Перейти:  
Ресурс не предоставляет электронные версии произведений, а занимается лишь коллекционированием и каталогизацией ссылок, присылаемых и публикуемых на форуме нашими читателями. Если вы являетесь правообладателем какого-либо представленного материала и не желаете чтобы ссылка на него находилась в нашем каталоге, свяжитесь с нами и мы незамедлительно удалим её. Файлы для обмена на трекере предоставлены пользователями сайта, и администрация не несёт ответственности за их содержание. Просьба не заливать файлы, защищенные авторскими правами, а также файлы нелегального содержания!
cron