Начать новую тему Ответить на тему
Статистика раздачи
Размер: 103.35 МБ | Добавлен: 23 май 2019, 20:07 | Скачали: 0
Сидеров: 0  [0 байт/сек]    Личеров: 0  [0 байт/сек]
Пред. тема | След. тема 

Автор
Сообщение

СообщениеДобавлено: 23 май 2019, 20:07 

Ответить с цитатой 

Marta / Yeah, Yeah, Yeah
Жанр: House, Electro, Euro House
Страна-производитель диска: Germany
Год издания диска: 2002
Издатель (лейбл): BMG Berlin Musik GmbH
Номер по каталогу: 7432194468 2
Страна: Germany
Аудио кодек: APE (*.ape)
Тип рипа: image+.cue
Битрейт аудио: lossless
Продолжительность: 15:15
Источник (релизер): tora ( danceforum.ru )
Наличие сканов в содержимом раздачи: нет
Треклист:
1 Yeah, Yeah, Yeah ( Single Edit ) 3:21
2 Yeah, Yeah, Yeah ( Hardy Hard' s Hand' s Up Remix ) 5:12
3 Yeah, Yeah, Yeah ( Blue PM Remix ) 3:22
4 Lost In You 3:20
Код:
Exact Audio Copy V0.99 prebeta 5 from 4. May 2009
EAC extraction logfile from 5. December 2010, 9:35
Marta / Yeah, Yeah, Yeah
Used drive  : TSSTcorpCD/DVDW SH-S182D   Adapter: 0  ID: 0
Read mode               : Secure
Utilize accurate stream : Yes
Defeat audio cache      : Yes
Make use of C2 pointers : No
Read offset correction                      : 6
Overread into Lead-In and Lead-Out          : No
Fill up missing offset samples with silence : Yes
Delete leading and trailing silent blocks   : No
Null samples used in CRC calculations       : Yes
Used interface                              : Installed external ASPI interface
Used output format : Internal WAV Routines
Sample format      : 44.100 Hz; 16 Bit; Stereo
TOC of the extracted CD
     Track |   Start  |  Length  | Start sector | End sector
    ---------------------------------------------------------
        1  |  0:00.32 |  3:23.55 |        32    |    15311
        2  |  3:24.12 |  5:13.70 |     15312    |    38856
        3  |  8:38.07 |  3:21.20 |     38857    |    53951
        4  | 11:59.27 |  3:21.43 |     53952    |    69069
        5  | 17:52.70 | 56:05.05 |     80470    |   332849
Range status and errors
Selected range
     Filename C:\Documents and Settings\tester\Desktop\Marta - Yeah, Yeah, Yeah.wav
     Peak level 100.0 %
     Range quality 99.8 %
     Copy CRC CEE28B7A
     Copy OK
No errors occurred
AccurateRip summary
Track  1  cannot be verified as accurate (confidence 1)  [9369D219], AccurateRip returned [47025BA0]
Track  2  not present in database
Track  3  cannot be verified as accurate (confidence 1)  [A6E87F1E], AccurateRip returned [2A722101]
Track  4  not present in database
 2 track(s) could not be verified as accurate
 2 track(s) not present in the AccurateRip database
No tracks could be verified as accurate
You may have a different pressing from the one(s) in the database
End of status report
Код:
[img]http://i19.fastpic.ru/big/2011/0331/65/3db8f83df1b113d68c66a73423618165.jpg[/img]
Доп. информация: Автору Рипа Огромное Спасибо. Давно Искал В Lossless. Выложено Исключительно Для Ознакомления.
Настоящее Имя Marta Tomkiewicz. Просто Красивая Девушка И Исполнительница House, Electro, Euro House Из Германии.
Качество Альбома Range quality 99.8 % Но Звучит Диск Хорошо, Без Погрешностей На Слух.
Марта И Я.
Правила, инструкции, FAQ!!!
Торрент  Добавлен [23 май 2019, 20:07] Скачать торрент Магнет ссылка
Скачать торрент
[ Размер 17.01 КБ / Просмотров 2 ]

Статус
Проверен 
 
Размер  103.35 МБ
Приватный: Нет (DHT включён)
.torrent скачан  0
Как залить торрент? | Как скачать Torrent? | Ошибка в торренте? Качайте магнет  


     Отправить личное сообщение
   
Страница 1 из 1
Показать сообщения за:  Поле сортировки  
Начать новую тему Ответить на тему


Сейчас этот форум просматривают: нет зарегистрированных пользователей и гости: 0


Вы не можете начинать темы
Вы не можете отвечать на сообщения
Вы не можете редактировать свои сообщения
Вы не можете удалять свои сообщения
Вы не можете добавлять вложения

Перейти:  
Ресурс не предоставляет электронные версии произведений, а занимается лишь коллекционированием и каталогизацией ссылок, присылаемых и публикуемых на форуме нашими читателями. Если вы являетесь правообладателем какого-либо представленного материала и не желаете чтобы ссылка на него находилась в нашем каталоге, свяжитесь с нами и мы незамедлительно удалим её. Файлы для обмена на трекере предоставлены пользователями сайта, и администрация не несёт ответственности за их содержание. Просьба не заливать файлы, защищенные авторскими правами, а также файлы нелегального содержания!
cron