Начать новую тему Ответить на тему
Статистика раздачи
Размер: 95.66 МБ | Добавлен: 23 май 2019, 20:02 | Скачали: 0
Сидеров: 0  [0 байт/сек]    Личеров: 0  [0 байт/сек]
Пред. тема | След. тема 

Автор
Сообщение

СообщениеДобавлено: 23 май 2019, 20:02 

Ответить с цитатой 

Cathy Dennis / You Lied To Me (Maxi CD Single) (Promo)
Жанр: House/Dance
Страна-производитель диска: USA
Год издания: 1992
Издатель (лейбл): Polydor
Номер по каталогу: CDP 741
Аудиокодек: FLAC (*.flac)
Тип рипа: tracks+.cue
Битрейт аудио: lossless
Продолжительность: 00:13:16
Источник (релизер): not my own rip
Треклист:
1. Cathy Dennis - You Lied To Me (Radio Edit) (3:40)
2. Cathy Dennis - You Lied To Me (Sprayed With Edited Attitude) (4:09)
3. Cathy Dennis - You Lied To Me (5:27)
Код:
Exact Audio Copy V1.0 beta 1 from 15. November 2010
EAC extraction logfile from 24. September 2011, 1:11
Cathy Dennis / You Lied To Me (Promo)
Used drive  : TSSTcorpCDRWDVD TS-H493A   Adapter: 0  ID: 1
Read mode               : Secure
Utilize accurate stream : Yes
Defeat audio cache      : Yes
Make use of C2 pointers : No
Read offset correction                      : 6
Overread into Lead-In and Lead-Out          : No
Fill up missing offset samples with silence : Yes
Delete leading and trailing silent blocks   : No
Null samples used in CRC calculations       : Yes
Used interface                              : Native Win32 interface for Win NT & 2000
Gap handling                                : Appended to previous track
Used output format              : User Defined Encoder
Selected bitrate                : 320 kBit/s
Quality                         : High
Add ID3 tag                     : No
Command line compressor         : C:\Program Files (x86)\FLAC\flac.exe
Additional command line options : -V -8 -T "artist=%a" -T "title=%t" -T "album=%g" -T "date=%y" -T "tracknumber=%n" -T "genre=%m" %s
TOC of the extracted CD
     Track |   Start  |  Length  | Start sector | End sector
    ---------------------------------------------------------
        1  |  0:00.00 |  3:40.55 |         0    |    16554
        2  |  3:40.55 |  4:09.65 |     16555    |    35294
        3  |  7:50.45 |  5:27.20 |     35295    |    59839
Track  1
     Filename C:\burn\Cathy Dennis - You Lied To Me (Promo) (1992) (flac)\01 - Cathy Dennis - You Lied To Me (Radio Edit).wav
     Pre-gap length  0:00:02.00
     Peak level 100.0 %
     Extraction speed 1.8 X
     Track quality 100.0 %
     Test CRC 90298861
     Copy CRC 90298861
     Track not present in AccurateRip database
     Copy OK
Track  2
     Filename C:\burn\Cathy Dennis - You Lied To Me (Promo) (1992) (flac)\02 - Cathy Dennis - You Lied To Me (Sprayed With Edited Attitude).wav
     Pre-gap length  0:00:02.44
     Peak level 96.9 %
     Extraction speed 2.1 X
     Track quality 100.0 %
     Test CRC E503B0C5
     Copy CRC E503B0C5
     Track not present in AccurateRip database
     Copy OK
Track  3
     Filename C:\burn\Cathy Dennis - You Lied To Me (Promo) (1992) (flac)\03 - Cathy Dennis - You Lied To Me.wav
     Pre-gap length  0:00:02.46
     Peak level 100.0 %
     Extraction speed 2.4 X
     Track quality 100.0 %
     Test CRC 5DDD72B8
     Copy CRC 5DDD72B8
     Track not present in AccurateRip database
     Copy OK
None of the tracks are present in the AccurateRip database
No errors occurred
End of status report
==== Log checksum F0316D77847383FE2F2179427E15C240F63052000F744E63CD0D049E5EA039DE ====
Код:
REM GENRE Synthpop
REM DATE 1992
REM DISCID 15031D03
REM COMMENT "ExactAudioCopy v1.0b1"
FILE "01 - Cathy Dennis - You Lied To Me (Radio Edit).wav" WAVE
  TRACK 01 AUDIO
    INDEX 01 00:00:00
  TRACK 02 AUDIO
    INDEX 00 03:38:22
FILE "02 - Cathy Dennis - You Lied To Me (Sprayed With Edited Attitude).wav" WAVE
    INDEX 01 00:00:00
  TRACK 03 AUDIO
    INDEX 00 04:07:30
FILE "03 - Cathy Dennis - You Lied To Me.wav" WAVE
    INDEX 01 00:00:00
Правила, инструкции, FAQ!!!
Торрент  Добавлен [23 май 2019, 20:02] Скачать торрент Магнет ссылка
Скачать торрент
[ Размер 16.16 КБ / Просмотров 3 ]

Статус
Проверен 
 
Размер  95.66 МБ
Приватный: Нет (DHT включён)
.torrent скачан  0
Как залить торрент? | Как скачать Torrent? | Ошибка в торренте? Качайте магнет  


     Отправить личное сообщение
   
Страница 1 из 1
Показать сообщения за:  Поле сортировки  
Начать новую тему Ответить на тему


Сейчас этот форум просматривают: нет зарегистрированных пользователей и гости: 0


Вы не можете начинать темы
Вы не можете отвечать на сообщения
Вы не можете редактировать свои сообщения
Вы не можете удалять свои сообщения
Вы не можете добавлять вложения

Перейти:  
Ресурс не предоставляет электронные версии произведений, а занимается лишь коллекционированием и каталогизацией ссылок, присылаемых и публикуемых на форуме нашими читателями. Если вы являетесь правообладателем какого-либо представленного материала и не желаете чтобы ссылка на него находилась в нашем каталоге, свяжитесь с нами и мы незамедлительно удалим её. Файлы для обмена на трекере предоставлены пользователями сайта, и администрация не несёт ответственности за их содержание. Просьба не заливать файлы, защищенные авторскими правами, а также файлы нелегального содержания!
cron