Начать новую тему Ответить на тему
Статистика раздачи
Размер: 371.18 МБ | Добавлен: 23 май 2019, 20:05 | Скачали: 0
Сидеров: 0  [0 байт/сек]    Личеров: 0  [0 байт/сек]
Пред. тема | След. тема 

Автор
Сообщение

СообщениеДобавлено: 23 май 2019, 20:05 

Ответить с цитатой 

Ricky Ricardo / Outthere
Жанр: Hip-Hop, Euro-Rap, Pop
Страна-производитель диска: Germany
Год издания: 1988
Издатель (лейбл): Chartware Records
Номер по каталогу: IMCD 73
Страна: Germany
Аудиокодек: APE (*.ape)
Тип рипа: tracks+.cue
Битрейт аудио: lossless
Продолжительность: 00:41:06
Источник (релизер): CD
Наличие сканов в содержимом раздачи: 600dpi PNG
Треклист:
1. Swingaling (3:36)
2. Womaniser (4:10)
3. The Girl From Ipanema (3:57)
4. Junglefever (4:21)
5. Papa Say (3:46)
6. Interlude (1:22)
7. Come And Get Some (3:55)
8. Crime Scene (4:38)
9. Money (4:30)
10. Biste Estou Triste (3:36)
11. Chiquita Bonita (3:15)
Код:
Exact Audio Copy V1.0 beta 3 from 29. August 2011
EAC extraction logfile from 31. October 2012, 20:38
Ricky Ricardo / Outthere
Used drive  : ASUS    DRW-2014L1T   Adapter: 2  ID: 1
Read mode               : Secure
Utilize accurate stream : Yes
Defeat audio cache      : Yes
Make use of C2 pointers : No
Read offset correction                      : 6
Overread into Lead-In and Lead-Out          : No
Fill up missing offset samples with silence : Yes
Delete leading and trailing silent blocks   : No
Null samples used in CRC calculations       : Yes
Used interface                              : Native Win32 interface for Win NT & 2000
Gap handling                                : Appended to previous track
Used output format              : User Defined Encoder
Selected bitrate                : 896 kBit/s
Quality                         : High
Add ID3 tag                     : No
Command line compressor         : C:\Program Files (x86)\Monkey's Audio\wapet.exe
Additional command line options : %dest% -t "Track=%tracknr2%" -t "Artist=%artist%" -t "Title=%title%" -t "Album Artist=%albumartist%" -t "Album=%albumtitle%" -t "Genre=%genre%" -t "Year=%year%" -t "Comment=%comment%" -t "Composer=%composer%" "C:\Program Files (x86)\Monkey's Audio\MAC.exe" %source% %dest% -c3000 -v
TOC of the extracted CD
     Track |   Start  |  Length  | Start sector | End sector
    ---------------------------------------------------------
        1  |  0:00.00 |  3:36.25 |         0    |    16224
        2  |  3:36.25 |  4:09.62 |     16225    |    34961
        3  |  7:46.12 |  3:56.65 |     34962    |    52726
        4  | 11:43.02 |  4:20.45 |     52727    |    72271
        5  | 16:03.47 |  3:45.68 |     72272    |    89214
        6  | 19:49.40 |  1:21.55 |     89215    |    95344
        7  | 21:11.20 |  3:54.57 |     95345    |   112951
        8  | 25:06.02 |  4:37.45 |    112952    |   133771
        9  | 29:43.47 |  4:30.10 |    133772    |   154031
       10  | 34:13.57 |  3:36.00 |    154032    |   170231
       11  | 37:49.57 |  3:15.18 |    170232    |   184874
Track  1
     Filename D:\OUTPUT FILES\01 Ricky Ricardo - Swingaling.wav
     Pre-gap length  0:00:02.00
     Peak level 98.0 %
     Extraction speed 4.9 X
     Track quality 100.0 %
     Test CRC 1C585444
     Copy CRC 1C585444
     Accurately ripped (confidence 1)  [92BC778A]  (AR v1)
     Copy OK
Track  2
     Filename D:\OUTPUT FILES\02 Ricky Ricardo - Womaniser.wav
     Pre-gap length  0:00:00.13
     Peak level 98.0 %
     Extraction speed 5.5 X
     Track quality 100.0 %
     Test CRC 66DF491A
     Copy CRC 66DF491A
     Accurately ripped (confidence 1)  [2FDD4C52]  (AR v1)
     Copy OK
Track  3
     Filename D:\OUTPUT FILES\03 Ricky Ricardo - The Girl From Ipanema.wav
     Pre-gap length  0:04:09.96
     Peak level 98.0 %
     Extraction speed 5.9 X
     Track quality 100.0 %
     Test CRC B79A3BEB
     Copy CRC B79A3BEB
     Accurately ripped (confidence 1)  [7E448B4A]  (AR v1)
     Copy OK
Track  4
     Filename D:\OUTPUT FILES\04 Ricky Ricardo - Junglefever.wav
     Pre-gap length  0:08:06.82
     Peak level 98.0 %
     Extraction speed 4.9 X
     Track quality 99.9 %
     Test CRC 9D855FA8
     Copy CRC 9D855FA8
     Accurately ripped (confidence 1)  [CBF13618]  (AR v1)
     Copy OK
Track  5
     Filename D:\OUTPUT FILES\05 Ricky Ricardo - Papa Say.wav
     Pre-gap length  0:12:27.42
     Peak level 98.0 %
     Extraction speed 5.8 X
     Track quality 100.0 %
     Test CRC 03440E2E
     Copy CRC 03440E2E
     Accurately ripped (confidence 1)  [20DDAE50]  (AR v1)
     Copy OK
Track  6
     Filename D:\OUTPUT FILES\06 Ricky Ricardo - Interlude.wav
     Pre-gap length  0:16:13.33
     Peak level 86.9 %
     Extraction speed 4.7 X
     Track quality 100.0 %
     Test CRC 5C8954BE
     Copy CRC 5C8954BE
     Accurately ripped (confidence 1)  [F62BA89D]  (AR v1)
     Copy OK
Track  7
     Filename D:\OUTPUT FILES\07 Ricky Ricardo - Come And Get Some.wav
     Pre-gap length  0:17:35.06
     Peak level 98.0 %
     Extraction speed 5.4 X
     Track quality 99.9 %
     Test CRC 07640EF1
     Copy CRC 07640EF1
     Cannot be verified as accurate (confidence 1)  [697C128D], AccurateRip returned [3B95D295]  (AR v2)
     Copy OK
Track  8
     Filename D:\OUTPUT FILES\08 Ricky Ricardo - Crime Scene.wav
     Pre-gap length  0:21:29.82
     Peak level 98.0 %
     Extraction speed 6.7 X
     Track quality 100.0 %
     Test CRC 82D235BF
     Copy CRC 82D235BF
     Accurately ripped (confidence 1)  [ADD4D34A]  (AR v1)
     Copy OK
Track  9
     Filename D:\OUTPUT FILES\09 Ricky Ricardo - Money.wav
     Pre-gap length  0:26:07.42
     Peak level 98.0 %
     Extraction speed 7.0 X
     Track quality 100.0 %
     Test CRC 71C40A28
     Copy CRC 71C40A28
     Accurately ripped (confidence 1)  [7AE75C74]  (AR v1)
     Copy OK
Track 10
     Filename D:\OUTPUT FILES\10 Ricky Ricardo - Biste Estou Triste.wav
     Pre-gap length  0:30:37.56
     Peak level 98.0 %
     Extraction speed 7.0 X
     Track quality 100.0 %
     Test CRC 6E015B36
     Copy CRC 6E015B36
     Accurately ripped (confidence 1)  [C3BFA39C]  (AR v1)
     Copy OK
Track 11
     Filename D:\OUTPUT FILES\11 Ricky Ricardo - Chiquita Bonita.wav
     Pre-gap length  0:34:13.56
     Peak level 98.0 %
     Extraction speed 6.1 X
     Track quality 99.9 %
     Test CRC 16734903
     Copy CRC 16734903
     Accurately ripped (confidence 1)  [F7B9370F]  (AR v1)
     Copy OK
10 track(s) accurately ripped
 1 track(s) could not be verified as accurate
Some tracks could not be verified as accurate
No errors occurred
End of status report
---- CUETools DB Plugin V2.1.3
[CTDB TOCID: jTQA7Cf_JWNDInhpUkqqJ4rCBvM-] disk not present in database, Submit result: jTQA7Cf_JWNDInhpUkqqJ4rCBvM- has been uploaded
==== Log checksum F9835D8F6DDBCAB9AE679D4078A7CCF973955709C42B604943CCE70F95DE1749 ====
Код:
REM GENRE Pop
REM DATE 1998
REM DISCID 9309A10B
REM COMMENT "ExactAudioCopy v1.0b3"
PERFORMER "Ricky Ricardo"
TITLE "Outthere"
FILE "01 Ricky Ricardo - Swingaling.wav" WAVE
  TRACK 01 AUDIO
    TITLE "Swingaling"
    PERFORMER "Ricky Ricardo"
    INDEX 01 00:00:00
  TRACK 02 AUDIO
    TITLE "Womaniser"
    PERFORMER "Ricky Ricardo"
    INDEX 00 03:36:15
FILE "02 Ricky Ricardo - Womaniser.wav" WAVE
    INDEX 01 00:00:00
  TRACK 03 AUDIO
    TITLE "The Girl From Ipanema"
    PERFORMER "Ricky Ricardo"
    INDEX 00 00:00:65
FILE "03 Ricky Ricardo - The Girl From Ipanema.wav" WAVE
    INDEX 01 00:00:00
  TRACK 04 AUDIO
    TITLE "Junglefever"
    PERFORMER "Ricky Ricardo"
    INDEX 00 06:51:03
FILE "04 Ricky Ricardo - Junglefever.wav" WAVE
    INDEX 01 00:00:00
  TRACK 05 AUDIO
    TITLE "Papa Say"
    PERFORMER "Ricky Ricardo"
    INDEX 00 02:54:13
FILE "05 Ricky Ricardo - Papa Say.wav" WAVE
    INDEX 01 00:00:00
  TRACK 06 AUDIO
    TITLE "Interlude"
    PERFORMER "Ricky Ricardo"
    INDEX 00 98:33:43
FILE "06 Ricky Ricardo - Interlude.wav" WAVE
    INDEX 01 00:00:00
  TRACK 07 AUDIO
    TITLE "Come And Get Some"
    PERFORMER "Ricky Ricardo"
    INDEX 00 94:47:50
FILE "07 Ricky Ricardo - Come And Get Some.wav" WAVE
    INDEX 01 00:00:00
  TRACK 08 AUDIO
    TITLE "Crime Scene"
    PERFORMER "Ricky Ricardo"
    INDEX 00 93:25:70
FILE "08 Ricky Ricardo - Crime Scene.wav" WAVE
    INDEX 01 00:00:00
  TRACK 09 AUDIO
    TITLE "Money"
    PERFORMER "Ricky Ricardo"
    INDEX 00 89:31:13
FILE "09 Ricky Ricardo - Money.wav" WAVE
    INDEX 01 00:00:00
  TRACK 10 AUDIO
    TITLE "Biste Estou Triste"
    PERFORMER "Ricky Ricardo"
    INDEX 00 84:53:43
FILE "10 Ricky Ricardo - Biste Estou Triste.wav" WAVE
    INDEX 01 00:00:00
  TRACK 11 AUDIO
    TITLE "Chiquita Bonita"
    PERFORMER "Ricky Ricardo"
    INDEX 00 70:23:33
FILE "11 Ricky Ricardo - Chiquita Bonita.wav" WAVE
    INDEX 01 00:00:00
Правила, инструкции, FAQ!!!
Торрент  Добавлен [23 май 2019, 20:05] Скачать торрент Магнет ссылка
Скачать торрент
[ Размер 16.22 КБ / Просмотров 4 ]

Статус
Проверен 
 
Размер  371.18 МБ
Приватный: Нет (DHT включён)
.torrent скачан  0
Как залить торрент? | Как скачать Torrent? | Ошибка в торренте? Качайте магнет  


     Отправить личное сообщение
   
Страница 1 из 1
Показать сообщения за:  Поле сортировки  
Начать новую тему Ответить на тему


Сейчас этот форум просматривают: нет зарегистрированных пользователей и гости: 0


Вы не можете начинать темы
Вы не можете отвечать на сообщения
Вы не можете редактировать свои сообщения
Вы не можете удалять свои сообщения
Вы не можете добавлять вложения

Перейти:  
Ресурс не предоставляет электронные версии произведений, а занимается лишь коллекционированием и каталогизацией ссылок, присылаемых и публикуемых на форуме нашими читателями. Если вы являетесь правообладателем какого-либо представленного материала и не желаете чтобы ссылка на него находилась в нашем каталоге, свяжитесь с нами и мы незамедлительно удалим её. Файлы для обмена на трекере предоставлены пользователями сайта, и администрация не несёт ответственности за их содержание. Просьба не заливать файлы, защищенные авторскими правами, а также файлы нелегального содержания!
cron