Начать новую тему Ответить на тему
Статистика раздачи
Размер: 509.13 МБ | Добавлен: 10 июл 2019, 09:02 | Скачали: 0
Сидеров: 0  [0 байт/сек]    Личеров: 0  [0 байт/сек]
Пред. тема | След. тема 

Автор
Сообщение

СообщениеДобавлено: 10 июл 2019, 09:02 

Ответить с цитатой 

Arabs in Aspic - Live at Avantgarden
Жанр: Heavy Prog
Носитель: CD
Страна-производитель диска (релиза): Norway
Год издания: 2018
Издатель (лейбл): Apollon Records
Номер по каталогу: ARP014CD
Страна исполнителя (группы): Norway
Аудиокодек: FLAC (*.flac)
Тип рипа: tracks +.cue
Битрейт аудио: lossless
Продолжительность: 75:06
Источник (релизер): veushka
Наличие сканов в содержимом раздачи: да
Треклист:
1. Syndenes Magi (11:07)
2. Mørket 2 (9:00)
3. Mørket 3 (11:43)
4. Victim Of Your Father's Agony (11:13)
5. Pictures In A Dream (6:28)
6. Silver Storm (9:22)
7. Mørket (8:42)
8. One (7:31)
Код:
Exact Audio Copy V1.0 beta 3 from 29. August 2011
EAC extraction logfile from 3. July 2019, 18:58
Arabs in Aspic / Arabs In Aspic Live
Used drive  : HL-DT-STDVDRAM GH24NSB0   Adapter: 3  ID: 0
Read mode               : Secure
Utilize accurate stream : Yes
Defeat audio cache      : Yes
Make use of C2 pointers : No
Read offset correction                      : 6
Overread into Lead-In and Lead-Out          : No
Fill up missing offset samples with silence : Yes
Delete leading and trailing silent blocks   : No
Null samples used in CRC calculations       : Yes
Used interface                              : Native Win32 interface for Win NT & 2000
Gap handling                                : Appended to previous track
Used output format              : User Defined Encoder
Selected bitrate                : 1024 kBit/s
Quality                         : High
Add ID3 tag                     : No
Command line compressor         : C:\Program Files\Exact Audio Copy\FLAC\FLAC.EXE
Additional command line options : -8 -V -T "ARTIST=%artist%" -T "TITLE=%title%" -T "ALBUM=%albumtitle%" -T "DATE=%year%" -T "TRACKNUMBER=%tracknr%" -T "TOTALTRACKS=%numtracks%" -T "GENRE=%genre%" -T "ALBUMARTIST=%albumartist%" -T "ALBUM ARTIST=%albumartist%" -T "COMMENT=EAC Secure Mode, Test & Copy, AccurateRip, FLAC -8" %source%
TOC of the extracted CD
     Track |   Start  |  Length  | Start sector | End sector
    ---------------------------------------------------------
        1  |  0:00.00 | 11:11.23 |         0    |    50347
        2  | 11:11.23 |  9:01.02 |     50348    |    90924
        3  | 20:12.25 | 11:45.58 |     90925    |   143857
        4  | 31:58.08 | 11:17.20 |    143858    |   194652
        5  | 43:15.28 |  6:28.50 |    194653    |   223802
        6  | 49:44.03 |  9:24.10 |    223803    |   266112
        7  | 59:08.13 |  8:44.62 |    266113    |   305474
        8  | 67:53.00 |  7:31.45 |    305475    |   339344
Track  1
     Filename F:\Veushka\Arabs in Aspic - Live at Avantgarden\01 - Syndenes Magi.wav
     Pre-gap length  0:00:02.00
     Peak level 100.0 %
     Extraction speed 1.3 X
     Track quality 99.9 %
     Test CRC 31B7595B
     Copy CRC 31B7595B
     Cannot be verified as accurate (confidence 1)  [0FF6E1F6], AccurateRip returned [1815411C]  (AR v2)
     Copy OK
Track  2
     Filename F:\Veushka\Arabs in Aspic - Live at Avantgarden\02 - Morkret 2.wav
     Pre-gap length  0:00:02.00
     Peak level 100.0 %
     Extraction speed 1.6 X
     Track quality 100.0 %
     Test CRC BD419653
     Copy CRC BD419653
     Accurately ripped (confidence 1)  [04357756]  (AR v2)
     Copy OK
Track  3
     Filename F:\Veushka\Arabs in Aspic - Live at Avantgarden\03 - Morkret 3.wav
     Pre-gap length  0:00:02.00
     Peak level 100.0 %
     Extraction speed 1.9 X
     Track quality 100.0 %
     Test CRC 7FD4DFC1
     Copy CRC 7FD4DFC1
     Accurately ripped (confidence 1)  [6F01BCBE]  (AR v2)
     Copy OK
Track  4
     Filename F:\Veushka\Arabs in Aspic - Live at Avantgarden\04 - Victim of your father's agony.wav
     Pre-gap length  0:00:02.00
     Peak level 100.0 %
     Extraction speed 2.0 X
     Track quality 99.9 %
     Test CRC E1B0FDF8
     Copy CRC E1B0FDF8
     Accurately ripped (confidence 1)  [378389DC]  (AR v2)
     Copy OK
Track  5
     Filename F:\Veushka\Arabs in Aspic - Live at Avantgarden\05 - Pictures in a dream.wav
     Pre-gap length  0:00:02.00
     Peak level 100.0 %
     Extraction speed 2.2 X
     Track quality 100.0 %
     Test CRC FA15059B
     Copy CRC FA15059B
     Accurately ripped (confidence 1)  [93AF4F37]  (AR v2)
     Copy OK
Track  6
     Filename F:\Veushka\Arabs in Aspic - Live at Avantgarden\06 - Silver storm.wav
     Pre-gap length  0:00:02.00
     Peak level 88.5 %
     Extraction speed 2.4 X
     Track quality 100.0 %
     Test CRC D8D074CB
     Copy CRC D8D074CB
     Accurately ripped (confidence 1)  [2A942218]  (AR v2)
     Copy OK
Track  7
     Filename F:\Veushka\Arabs in Aspic - Live at Avantgarden\07 - Morkret.wav
     Pre-gap length  0:00:01.70
     Peak level 100.0 %
     Extraction speed 2.5 X
     Track quality 100.0 %
     Test CRC EA807736
     Copy CRC EA807736
     Accurately ripped (confidence 1)  [276CFD71]  (AR v2)
     Copy OK
Track  8
     Filename F:\Veushka\Arabs in Aspic - Live at Avantgarden\08 - One.wav
     Pre-gap length  0:00:02.00
     Peak level 97.0 %
     Extraction speed 2.7 X
     Track quality 100.0 %
     Test CRC 6DD3D8AD
     Copy CRC 6DD3D8AD
     Accurately ripped (confidence 1)  [95B16FFA]  (AR v2)
     Copy OK
 7 track(s) accurately ripped
 1 track(s) could not be verified as accurate
Some tracks could not be verified as accurate
No errors occurred
End of status report
---- CUETools DB Plugin V2.1.3
[CTDB TOCID: AYGAZFEi3yybGalOfix3NHq.R_E-] found, Submit result: AYGAZFEi3yybGalOfix3NHq.R_E- has been confirmed
[3521977c] (3/3) Accurately ripped
==== Log checksum F1A92380CEDB2A68A375505E498DCE8B6D87AA2F285F1E0BDF5DCDCB79F6653F ====
Код:
REM DISCID 7311AC08
REM COMMENT "ExactAudioCopy v1.0b3"
PERFORMER "Arabs in Aspic"
TITLE "Arabs In Aspic Live"
FILE "01 - Syndenes Magi.wav" WAVE
  TRACK 01 AUDIO
    TITLE "Syndenes Magi"
    PERFORMER "Arabs in Aspic"
    FLAGS DCP
    INDEX 01 00:00:00
  TRACK 02 AUDIO
    TITLE "Morkret 2"
    PERFORMER "Arabs in Aspic"
    FLAGS DCP
    INDEX 00 11:09:23
FILE "02 - Morkret 2.wav" WAVE
    INDEX 01 00:00:00
  TRACK 03 AUDIO
    TITLE "Morkret 3"
    PERFORMER "Arabs in Aspic"
    FLAGS DCP
    INDEX 00 08:59:02
FILE "03 - Morkret 3.wav" WAVE
    INDEX 01 00:00:00
  TRACK 04 AUDIO
    TITLE "Victim of your father's agony"
    PERFORMER "Arabs in Aspic"
    FLAGS DCP
    INDEX 00 11:43:58
FILE "04 - Victim of your father's agony.wav" WAVE
    INDEX 01 00:00:00
  TRACK 05 AUDIO
    TITLE "Pictures in a dream"
    PERFORMER "Arabs in Aspic"
    FLAGS DCP
    INDEX 00 11:15:20
FILE "05 - Pictures in a dream.wav" WAVE
    INDEX 01 00:00:00
  TRACK 06 AUDIO
    TITLE "Silver storm"
    PERFORMER "Arabs in Aspic"
    FLAGS DCP
    INDEX 00 06:26:50
FILE "06 - Silver storm.wav" WAVE
    INDEX 01 00:00:00
  TRACK 07 AUDIO
    TITLE "Morkret"
    PERFORMER "Arabs in Aspic"
    FLAGS DCP
    INDEX 00 09:22:15
FILE "07 - Morkret.wav" WAVE
    INDEX 01 00:00:00
  TRACK 08 AUDIO
    TITLE "One "
    PERFORMER "Arabs in Aspic"
    FLAGS DCP
    INDEX 00 08:42:62
FILE "08 - One.wav" WAVE
    INDEX 01 00:00:00
Код:
[CUETools log; Date: 08.07.2019 21:01:44; Version: 2.1.5]
[CTDB TOCID: AYGAZFEi3yybGalOfix3NHq.R_E-] found.
Track | CTDB Status
  1   | (4/4) Accurately ripped
  2   | (4/4) Accurately ripped
  3   | (4/4) Accurately ripped
  4   | (4/4) Accurately ripped
  5   | (4/4) Accurately ripped
  6   | (4/4) Accurately ripped
  7   | (4/4) Accurately ripped
  8   | (4/4) Accurately ripped
[AccurateRip ID: 0018a2b8-00a22293-7311ac08] found.
Track   [  CRC   |   V2   ] Status
 01     [e1891a0f|0ff6e1f6] (0+0/1) No match
 02     [ee9cfae3|04357756] (0+1/1) Accurately ripped
 03     [d0bd21bd|6f01bcbe] (0+1/1) Accurately ripped
 04     [1779f044|378389dc] (0+1/1) Accurately ripped
 05     [ab6f3490|93af4f37] (0+1/1) Accurately ripped
 06     [d8bbc94d|2a942218] (0+1/1) Accurately ripped
 07     [b7f582d8|276cfd71] (0+1/1) Accurately ripped
 08     [6bdba4ad|95b16ffa] (0+1/1) Accurately ripped
Track Peak [ CRC32  ] [W/O NULL] [  LOG   ]
 --  100,0 [5D7AB4E9] [EC0F179F]
 01  100,0 [31B7595B] [FF8E7B95]   CRC32
 02  100,0 [BD419653] [540DC747]   CRC32
 03  100,0 [7FD4DFC1] [AB929AE3]   CRC32
 04  100,0 [E1B0FDF8] [366DB1A5]   CRC32
 05  100,0 [FA15059B] [B440502D]   CRC32
 06   88,5 [D8D074CB] [BCC5814E]   CRC32
 07  100,0 [EA807736] [FA850775]   CRC32
 08   97,0 [6DD3D8AD] [A0E1BF7B]   CRC32
Код:
foobar2000 1.3.17 / Dynamic Range Meter 1.1.1
log date: 2019-07-08 21:02:55
--------------------------------------------------------------------------------
Analyzed: Arabs in Aspic / Arabs In Aspic Live
--------------------------------------------------------------------------------
DR         Peak         RMS     Duration Track
--------------------------------------------------------------------------------
DR8        0.00 dB   -11.01 dB     11:11 01-Syndenes Magi
DR8        0.00 dB   -11.02 dB      9:01 02-Morkret 2
DR8        0.00 dB   -10.99 dB     11:46 03-Morkret 3
DR9        0.00 dB   -10.99 dB     11:17 04-Victim of your father's agony
DR8        0.00 dB   -11.03 dB      6:29 05-Pictures in a dream
DR7       -1.06 dB   -10.99 dB      9:24 06-Silver storm
DR8        0.00 dB   -11.00 dB      8:45 07-Morkret
DR9       -0.26 dB   -10.99 dB      7:32 08-One
--------------------------------------------------------------------------------
Number of tracks:  8
Official DR value: DR8
Samplerate:        44100 Hz
Channels:          2
Bits per sample:   16
Bitrate:           867 kbps
Codec:             FLAC
================================================================================
- Jostein Smeby / guitar, vocals
- Stig Arve Kvam Jørgensen / hammond, synth, piano, vocals
- Erik Paulsen / bass, vocals
- Eskil Nyhus / drums, percussion
with:
- Alessandro Elide-Metal / percussion
Правила, инструкции, FAQ!!!
Торрент  Добавлен [10 июл 2019, 09:02] Скачать торрент Магнет ссылка
Скачать торрент
[ Размер 21.28 КБ / Просмотров 6 ]

Статус
Проверен 
 
Размер  509.13 МБ
Приватный: Нет (DHT включён)
.torrent скачан  0
Как залить торрент? | Как скачать Torrent? | Ошибка в торренте? Качайте магнет  


     Отправить личное сообщение
   
Страница 1 из 1
Показать сообщения за:  Поле сортировки  
Начать новую тему Ответить на тему


Сейчас этот форум просматривают: нет зарегистрированных пользователей и гости: 0


Вы не можете начинать темы
Вы не можете отвечать на сообщения
Вы не можете редактировать свои сообщения
Вы не можете удалять свои сообщения
Вы не можете добавлять вложения

Перейти:  
Ресурс не предоставляет электронные версии произведений, а занимается лишь коллекционированием и каталогизацией ссылок, присылаемых и публикуемых на форуме нашими читателями. Если вы являетесь правообладателем какого-либо представленного материала и не желаете чтобы ссылка на него находилась в нашем каталоге, свяжитесь с нами и мы незамедлительно удалим её. Файлы для обмена на трекере предоставлены пользователями сайта, и администрация не несёт ответственности за их содержание. Просьба не заливать файлы, защищенные авторскими правами, а также файлы нелегального содержания!
cron