Начать новую тему Ответить на тему
Статистика раздачи
Размер: 965.88 МБ | Добавлен: 10 июл 2019, 13:36 | Скачали: 0
Сидеров: 1  [0 байт/сек]    Личеров: 0  [0 байт/сек]
Пред. тема | След. тема 

Автор
Сообщение

СообщениеДобавлено: 10 июл 2019, 13:36 

Ответить с цитатой 

Heir Apparent - Discography


Жанр: Heavy/Power/Progressive Metal //Носитель: CD //Год издания: 1986-2018
Страна исполнителя (группы): United States ||Аудиокодек: FLAC (*.flac)&APE (*.ape) ||Тип рипа: image+.cue
Источник: ММТ ||Наличие сканов в содержимом раздачи: нет (2018-да)
Издатель (лейбл): Black Dragon Records
Номер по каталогу: BDCD 008
Страна-производитель диска (релиза): France
Источник: speedica ( спасибо)
Треклист:
01. Entrance [0:00:38.00]
02. Another Candle [0:03:55.10]
03. The Servant [0:03:24.32]
04. Tear Down The Walls [0:04:34.60]
05. Running From The Thunder [0:02:59.35]
06. The Cloak [0:02:34.10]
07. R.I.P. (Live) [0:04:58.18]
08. Hands Of Destiny [0:03:27.27]
09. Keeper Of The Reign [0:04:45.03]
10. Dragon's Lair [0:03:28.60]
11. Masters Of Invasion [0:05:07.20]
12. Nightmare [0:02:40.67]
13. A.N.D.... Drogro Lived On [0:03:41.53]
Код:
Exact Audio Copy V0.99 prebeta 4 from 23. January 2008
EAC extraction logfile from 12. August 2009, 13:59
Heir Apparent / Graceful Inheritance
Used drive  : PIONEER DVD-RW  DVR-106D   Adapter: 1  ID: 1
Read mode               : Secure
Utilize accurate stream : Yes
Defeat audio cache      : Yes
Make use of C2 pointers : No
Read offset correction                      : 48
Overread into Lead-In and Lead-Out          : No
Fill up missing offset samples with silence : Yes
Delete leading and trailing silent blocks   : No
Null samples used in CRC calculations       : Yes
Used interface                              : Installed external ASPI interface
Used output format              : User Defined Encoder
Selected bitrate                : 32 kBit/s
Quality                         : High
Add ID3 tag                     : No
Command line compressor         : C:\Program Files\Exact Audio Copy\Flac\flac.exe
Additional command line options : -6 -V %s
TOC of the extracted CD
     Track |   Start  |  Length  | Start sector | End sector
    ---------------------------------------------------------
        1  |  0:00.33 |  0:38.00 |        33    |     2882
        2  |  0:38.33 |  3:55.10 |      2883    |    20517
        3  |  4:33.43 |  3:24.32 |     20518    |    35849
        4  |  7:58.00 |  4:34.60 |     35850    |    56459
        5  | 12:32.60 |  2:59.35 |     56460    |    69919
        6  | 15:32.20 |  2:34.10 |     69920    |    81479
        7  | 18:06.30 |  4:58.18 |     81480    |   103847
        8  | 23:04.48 |  3:27.27 |    103848    |   119399
        9  | 26:32.00 |  4:45.03 |    119400    |   140777
       10  | 31:17.03 |  3:28.60 |    140778    |   156437
       11  | 34:45.63 |  5:07.20 |    156438    |   179482
       12  | 39:53.08 |  2:40.67 |    179483    |   191549
       13  | 42:34.00 |  3:41.53 |    191550    |   208177
Range status and errors
Selected range
     Filename L:\metalmadness\Heir Apparent - Graceful Inheritance.wav
     Peak level 100.0 %
     Range quality 100.0 %
     Copy CRC D58870CF
     Copy OK
No errors occurred
AccurateRip summary
Track  1  accurately ripped (confidence 1)  [9FB02394]
Track  2  accurately ripped (confidence 1)  [85F02429]
Track  3  accurately ripped (confidence 1)  [10E9951E]
Track  4  accurately ripped (confidence 1)  [4F1252FB]
Track  5  accurately ripped (confidence 1)  [8704EFC1]
Track  6  accurately ripped (confidence 1)  [5E87ED78]
Track  7  accurately ripped (confidence 1)  [6ACB8E3E]
Track  8  accurately ripped (confidence 1)  [83009C25]
Track  9  accurately ripped (confidence 1)  [1B2DBEF1]
Track 10  accurately ripped (confidence 1)  [7A85E195]
Track 11  accurately ripped (confidence 1)  [0C7FCB6C]
Track 12  accurately ripped (confidence 1)  [B1F50F38]
Track 13  accurately ripped (confidence 1)  [D2D3D036]
All tracks accurately ripped
End of status report
Код:
foobar2000 1.3.9 / Замер динамического диапазона (DR) 1.1.1
Дата отчёта:  2019-07-09 14:42:31
--------------------------------------------------------------------------------
Статистика для:  ?-Heir Apparent - Graceful Inheritance
Количество сэмплов: 122408664
Продолжительность: 46:16
--------------------------------------------------------------------------------
           Левый             Правый
Пики:                0.00 дБ     ---      0.00 дБ
Средний RMS:             -15.84 дБ     ---    -16.49 дБ
DR канала:              13.30 дБ     ---     13.81 дБ
--------------------------------------------------------------------------------
Реальные значения DR: DR14
Частота:   44100 Гц
Каналов:   2
Разрядность:   16
Битрейт:   983 кбит/с
Кодек:   FLAC
================================================================================
#777Издатель (лейбл): Metal Blade/Roadracer
Номер по каталогу: RO9472-2
Страна исполнителя (группы): United States
Источник: rockberto (спасибо)
Треклист:
01. Just Imagine 04:32
02. Crossing the Border 03:10
03. Screaming 03:51
04. Alone Again 03:49
05. Cacophony of Anger 04:11
06. The Sound of Silence (Simon & Garfunkel cover) 04:06
07. We, the People 03:38
08. Young Forever 02:45
09. One Small Voice 06:22
10. Decorated 04:50
11. The Fifth Season 05:39
Код:
EAC extraction logfile from 29. November 2007, 13:47 for CD
Heir Apparent / One Small Voice
Used drive  : PLEXTOR CD-R   PX-230A   Adapter: 1  ID: 1
Read mode   : Secure with NO C2, accurate stream, disable cache
Read offset correction : 738
Overread into Lead-In and Lead-Out : No
Used output format : C:\Programmi\Exact Audio Copy\MAC.EXE   (Monkey's Audio Lossless Encoder)
                     High Lossless Compression
Other options      :
    Fill up missing offset samples with silence : Yes
    Delete leading and trailing silent blocks : No
    Native Win32 interface for Win NT & 2000
Range status and errors
Selected range
     Filename F:\Heir Apparent - One Small Voice\Heir Apparent - One Small Voice.wav.wav
     Peak level 96.4 %
     Range quality 100.0 %
     CRC C45C20E7
     Copy OK
No errors occured
End of status report
#777Издатель (лейбл): No Remorse Records
Номер по каталогу: 0191924-597179
Страна-производитель диска (релиза): Greece
Источник:BACKLASH (спасибо)
Треклист:
01. Man in the Sky (5:35)
02. The Door (5:50)
03. Here We Aren't (5:44)
04. Synthetic Lies (4:59)
05. Savior (2:26)
06. Further and Farther (7:03)
07. The Road to Palestine (7:23)
08. Insomnia (6:01)
Код:
Exact Audio Copy V1.3 from 2. September 2016
EAC extraction logfile from 1. July 2019, 20:04
Heir Apparent / The View from Below
Used drive  : HL-DT-STDVDRAM GH24NSD1   Adapter: 1  ID: 0
Read mode               : Secure
Utilize accurate stream : Yes
Defeat audio cache      : Yes
Make use of C2 pointers : No
Read offset correction                      : 6
Overread into Lead-In and Lead-Out          : No
Fill up missing offset samples with silence : Yes
Delete leading and trailing silent blocks   : No
Null samples used in CRC calculations       : Yes
Used interface                              : Native Win32 interface for Win NT & 2000
Used output format              : User Defined Encoder
Selected bitrate                : 896 kBit/s
Quality                         : High
Add ID3 tag                     : No
Command line compressor         : C:\Program Files (x86)\Exact Audio Copy\Flac\flac.exe
Additional command line options : -6 -V %source%
TOC of the extracted CD
     Track |   Start  |  Length  | Start sector | End sector
    ---------------------------------------------------------
        1  |  0:00.00 |  5:53.71 |         0    |    26545
        2  |  5:53.71 |  5:50.04 |     26546    |    52799
        3  | 11:44.00 |  5:41.24 |     52800    |    78398
        4  | 17:25.24 |  4:52.43 |     78399    |   100341
        5  | 22:17.67 |  2:26.46 |    100342    |   111337
        6  | 24:44.38 |  7:00.21 |    111338    |   142858
        7  | 31:44.59 |  7:20.70 |    142859    |   175928
        8  | 39:05.54 |  6:04.35 |    175929    |   203263
Range status and errors
Selected range
     Filename C:\Users\User\Music\EAC\Heir Apparent - The View from Below\Heir Apparent - The View from Below.wav
     Peak level 98.1 %
     Extraction speed 6.9 X
     Range quality 100.0 %
     Test CRC D3B1945B
     Copy CRC D3B1945B
     Copy OK
No errors occurred
AccurateRip summary
Track  1  accurately ripped (confidence 3)  [F8DBDD46]  (AR v2)
Track  2  accurately ripped (confidence 3)  [5186FC04]  (AR v2)
Track  3  accurately ripped (confidence 3)  [7673B44C]  (AR v2)
Track  4  accurately ripped (confidence 3)  [0C14759D]  (AR v2)
Track  5  accurately ripped (confidence 3)  [6C96FA9F]  (AR v2)
Track  6  accurately ripped (confidence 3)  [B5C5C347]  (AR v2)
Track  7  accurately ripped (confidence 3)  [E0E2ECCD]  (AR v2)
Track  8  accurately ripped (confidence 3)  [C957E1CC]  (AR v2)
All tracks accurately ripped
End of status report
---- CUETools DB Plugin V2.1.6
[CTDB TOCID: oT.QjmZ7SpEX5VVTrjK6_9SBmUk-] found
Submit result: oT.QjmZ7SpEX5VVTrjK6_9SBmUk- has been confirmed
Track | CTDB Status
  1   | (10/10) Accurately ripped
  2   | (10/10) Accurately ripped
  3   | (10/10) Accurately ripped
  4   | (10/10) Accurately ripped
  5   | (10/10) Accurately ripped
  6   | (10/10) Accurately ripped
  7   | (10/10) Accurately ripped
  8   | (10/10) Accurately ripped
==== Log checksum 99E607A8850A854FB9799D5AC369C41BAB20A204BCBAF2FF5C80780D30AB6C1D ====
Код:
foobar2000 1.3.9 / Замер динамического диапазона (DR) 1.1.1
Дата отчёта:  2019-07-09 15:23:39
--------------------------------------------------------------------------------
Статистика для:  ?-Heir Apparent - The View from Below
Количество сэмплов: 119519232
Продолжительность: 45:10
--------------------------------------------------------------------------------
           Левый             Правый
Пики:               -0.19 дБ     ---     -0.16 дБ
Средний RMS:             -12.31 дБ     ---    -12.29 дБ
DR канала:              10.10 дБ     ---     10.21 дБ
--------------------------------------------------------------------------------
Реальные значения DR: DR10
Частота:   44100 Гц
Каналов:   2
Разрядность:   16
Битрейт:   928 кбит/с
Кодек:   FLAC
================================================================================
Paul Davidson Vocals
Terry Gorle Guitars, Vocals
Derek Peace Bass
Raymond Black Drums, Percussion
Правила, инструкции, FAQ!!!
Торрент  Добавлен [10 июл 2019, 13:36] Скачать торрент Магнет ссылка
Скачать торрент
[ Размер 21.04 КБ / Просмотров 7 ]

Статус
Проверен 
 
Размер  965.88 МБ
Приватный: Нет (DHT включён)
.torrent скачан  0
Как залить торрент? | Как скачать Torrent? | Ошибка в торренте? Качайте магнет  


     Отправить личное сообщение
   
Страница 1 из 1
Показать сообщения за:  Поле сортировки  
Начать новую тему Ответить на тему


Сейчас этот форум просматривают: нет зарегистрированных пользователей и гости: 0


Вы не можете начинать темы
Вы не можете отвечать на сообщения
Вы не можете редактировать свои сообщения
Вы не можете удалять свои сообщения
Вы не можете добавлять вложения

Перейти:  
Ресурс не предоставляет электронные версии произведений, а занимается лишь коллекционированием и каталогизацией ссылок, присылаемых и публикуемых на форуме нашими читателями. Если вы являетесь правообладателем какого-либо представленного материала и не желаете чтобы ссылка на него находилась в нашем каталоге, свяжитесь с нами и мы незамедлительно удалим её. Файлы для обмена на трекере предоставлены пользователями сайта, и администрация не несёт ответственности за их содержание. Просьба не заливать файлы, защищенные авторскими правами, а также файлы нелегального содержания!
cron