Начать новую тему Ответить на тему
Статистика раздачи
Размер: 437.76 МБ | Добавлен: 26 сен 2019, 22:01 | Скачали: 1
Сидеров: 8  [0 байт/сек]    Личеров: 2  [0 байт/сек]
Пред. тема | След. тема 

Автор
Сообщение

СообщениеДобавлено: 26 сен 2019, 22:01 

Ответить с цитатой 

Craig Goldy / Better Late Than Never
Жанр: Heavy Metal
Носитель: CD
Страна-производитель диска (релиза): EU
Год издания: 1995
Издатель (лейбл): Shrapnel Records, Roadrunner Records
Номер по каталогу: RR 8896 2
Страна исполнителя (группы): San Diego, California, USA
Аудиокодек: FLAC (*.flac)
Тип рипа: image+.cue
Продолжительность: 00:55:40
Источник: Kantor1975
Наличие сканов в содержимом раздачи: full

01. Desperate Plea (7:01)
02. (Nature's File Cabinet) Homicidal Brainiaxe (6:37)
03. Until Death Do We Meet Again (5:31)
04. Not Your First Time (6:40)
05. Just Being Me (4:37)
06. Empty Handed (5:28)
07. 13th Floor (6:36)
08. Fields Of Fire (6:03)
09. Demila's Demise (7:06)
Код:
Exact Audio Copy V1.3 from 2. September 2016
Отчёт EAC об извлечении, выполненном 21. сентября 2019, 9:13
Craig Goldy / Better Late Than Never
Дисковод: ASUS    DRW-2014S1T   Adapter: 2  ID: 1
Режим чтения                 : Достоверность
Использование точного потока : Да
Отключение кэша аудио        : Да
Использование указателей C2  : Нет
Коррекция смещения при чтении                     : 6
Способность читать области Lead-in и Lead-out     : Нет
Заполнение пропущенных сэмплов тишиной            : Да
Удаление блоков с тишиной в начале и конце        : Нет
При вычислениях CRC использовались нулевые сэмплы : Да
Интерфейс                                         : Установленный внешний ASPI-интерфейс
Выходной формат          : Пользовательский кодировщик
Выбранный битрейт        : 128 kBit/s
Качество                 : Высокий
Добавление ID3-тега      : Нет
Утилита сжатия           : C:\Program Files\Exact Audio Copy\Flac\flac.exe
Дополнительные параметры : -V -8 -T "Date=%year%" -T "Genre=%genre%" %source%
TOC извлечённого CD
     Трек |   Старт  | Длительность | Начальный сектор | Конечный сектор
    ---------------------------------------------------------------------
       1  |  0:00.32 |    7:01.15   |          32      |      31621
       2  |  7:01.47 |    6:37.30   |       31622      |      61426
       3  | 13:39.02 |    5:30.65   |       61427      |      86241
       4  | 19:09.67 |    6:40.18   |       86242      |     116259
       5  | 25:50.10 |    4:37.00   |      116260      |     137034
       6  | 30:27.10 |    5:27.42   |      137035      |     161601
       7  | 35:54.52 |    6:36.00   |      161602      |     191301
       8  | 42:30.52 |    6:03.25   |      191302      |     218551
       9  | 48:34.02 |    7:05.70   |      218552      |     250496
Характеристики диапазона извлечения и сообщения об ошибках
Выбранный диапазон
     Имя файла D:\Craig Goldy - Better Late Than Never.wav
     Пиковый уровень 84.1 %
     Скорость извлечения 6.2 X
     Качество диапазона 100.0 %
     CRC теста 187DB106
     CRC копии 187DB106
     Копирование... OK
Ошибок не произошло
AccurateRip: сводка
Трек  1  : извлечено точно (доверие 2)  [477AE4F2]  (AR v2)
Трек  2  : извлечено точно (доверие 2)  [C77AC67E]  (AR v2)
Трек  3  : извлечено точно (доверие 2)  [9152B875]  (AR v2)
Трек  4  : извлечено точно (доверие 2)  [0CE49799]  (AR v2)
Трек  5  : извлечено точно (доверие 2)  [E8902E41]  (AR v2)
Трек  6  : извлечено точно (доверие 2)  [E6B0D02A]  (AR v2)
Трек  7  : извлечено точно (доверие 2)  [71E6AAC3]  (AR v2)
Трек  8  : извлечено точно (доверие 2)  [A560B131]  (AR v2)
Трек  9  : извлечено точно (доверие 2)  [680C4EF7]  (AR v2)
Все треки извлечены точно
Конец отчёта
---- CUETools DB Plugin V2.1.6
[CTDB TOCID: JQgEN_BbPLtjR6QOryR4SfvFeEU-] disk not present in database
Submit result: JQgEN_BbPLtjR6QOryR4SfvFeEU- has been uploaded
==== Контрольная сумма отчёта 55C70B4FB7EA9EA247AB60A2A75A950990D851513889CD8354EE46C4AFC68549 ====
Код:
REM GENRE "Hard Rock"
REM DATE 1995
REM DISCID 6D0D0B09
REM COMMENT "ExactAudioCopy v1.3"
PERFORMER "Craig Goldy"
TITLE "Better Late Than Never"
REM COMPOSER ""
FILE "Craig Goldy - Better Late Than Never.flac" WAVE
  TRACK 01 AUDIO
    TITLE "Desperate Plea"
    PERFORMER "Craig Goldy"
    REM COMPOSER ""
    INDEX 00 00:00:00
    INDEX 01 00:00:32
  TRACK 02 AUDIO
    TITLE "(nature's File Cabinet) Homicidal Brainiaxe"
    PERFORMER "Craig Goldy"
    REM COMPOSER ""
    INDEX 01 07:01:47
  TRACK 03 AUDIO
    TITLE "Until Death Do We Meet Again"
    PERFORMER "Craig Goldy"
    REM COMPOSER ""
    INDEX 01 13:39:02
  TRACK 04 AUDIO
    TITLE "Not Your First Time"
    PERFORMER "Craig Goldy"
    REM COMPOSER ""
    INDEX 01 19:09:67
  TRACK 05 AUDIO
    TITLE "Just Being Me"
    PERFORMER "Craig Goldy"
    REM COMPOSER ""
    INDEX 01 25:50:10
  TRACK 06 AUDIO
    TITLE "Empty Handed"
    PERFORMER "Craig Goldy"
    REM COMPOSER ""
    INDEX 01 30:27:10
  TRACK 07 AUDIO
    TITLE "13th Floor"
    PERFORMER "Craig Goldy"
    REM COMPOSER ""
    INDEX 01 35:54:52
  TRACK 08 AUDIO
    TITLE "Fields Of Fire"
    PERFORMER "Craig Goldy"
    REM COMPOSER ""
    INDEX 01 42:30:52
  TRACK 09 AUDIO
    TITLE "Demila's Demise"
    PERFORMER "Craig Goldy"
    REM COMPOSER ""
    INDEX 01 48:34:02
Код:
-----------------------
DON'T MODIFY THIS FILE
-----------------------
PERFORMER: auCDtect Task Manager, ver. 1.6.0 RC1 build 1.6.0.1
Copyright (c) 2008-2010 y-soft. All rights reserved
[url=http://y-soft.org]http://y-soft.org[/url]
ANALYZER: auCDtect: CD records authenticity detector, version 0.8.2
Copyright (c) 2004 Oleg Berngardt. All rights reserved.
Copyright (c) 2004 Alexander Djourik. All rights reserved.
FILE: Craig Goldy - Better Late Than Never.flac
  Size: 452115394 Hash: 7E3D33E28E2A925ECE8F1A863E544081 Accuracy: -m0
  Conclusion: CDDA 100%
  Signature: 4F2F63D97A37BA3254F4A4CCBA3CD39EE6424462
[CUETools log; Date: 21.09.2019 15:53:05; Version: 2.1.5]
Pregap length 00:00:32.
[CTDB TOCID: JQgEN_BbPLtjR6QOryR4SfvFeEU-] found.
Track | CTDB Status
1 | (1/1) Accurately ripped
2 | (1/1) Accurately ripped
3 | (1/1) Accurately ripped
4 | (1/1) Accurately ripped
5 | (1/1) Accurately ripped
6 | (1/1) Accurately ripped
7 | (1/1) Accurately ripped
8 | (1/1) Accurately ripped
9 | (1/1) Accurately ripped
[AccurateRip ID: 001324ab-008b4e83-6d0d0b09] found.
Track [ CRC | V2 ] Status
01 [b9437d8b|477ae4f2] (0+2/2) Accurately ripped
02 [53105a07|c77ac67e] (0+2/2) Accurately ripped
03 [94485bad|9152b875] (0+2/2) Accurately ripped
04 [7197fddb|0ce49799] (0+2/2) Accurately ripped
05 [6407fed4|e8902e41] (0+2/2) Accurately ripped
06 [7cd45e04|e6b0d02a] (0+2/2) Accurately ripped
07 [49477f58|71e6aac3] (0+2/2) Accurately ripped
08 [d1b5a594|a560b131] (0+2/2) Accurately ripped
09 [7780730e|680c4ef7] (0+2/2) Accurately ripped
Track Peak [ CRC32 ] [W/O NULL] [ LOG ]
-- 84,1 [187DB106] [312D4E2B] CRC32
01 84,1 [D3587A27] [29E3956B]
02 84,1 [7030709D] [E63C6997]
03 84,1 [0BEB8E56] [A01E6586]
04 84,1 [40ADACDE] [16C048B6]
05 84,1 [15EAB211] [FFE375D5]
06 84,1 [4DB70789] [86D4E22B]
07 84,1 [073C9031] [565D65BA]
08 84,1 [BD4F6854] [60AABE5D]
09 84,1 [5C3A21C3] [80A69D63]
Доп. информация:
Рип разместил по просьбе автора Kantor1975, ему благодарности
Крэйг Голди (6 ноября 1961, Ла Месса, Калифорния, США) — американский виртуоз-гитарист, автор песен. Известен по выступлениям в группах Dio, Rough Cutt, Giuffria Budgie и др.
В 1993 году Голди выпустил свой первый сольный альбом под вывеской Craig Goldy (перед этим Craig Goldy's Ritual project 1991 года) «Insufficient Therapy», на Shrapnel Records, в котором согласно буржуйской википедии Джефф Пилсон (Dokken, Dio, War & Peace) написал тексты для 4 песен и принял участие в качестве вокалиста. 7 ноября в 1995 году выходит следующий лонгплей «Better Late Than Never», где в качестве композитора, со-продюсера и вокалиста был приглашен Matt Bradley. За это время Голди и Пилсон также сотрудничали в прогрессивном хэви-рок-проекте под названием 13th Floor, хотя ни один альбом так и не был выпущен...
~ ru.wikipedia/ Голди, Крэйг
~ Голди, Крэйг
~ metal-archives

Line-up / Musicians:
- Craig Goldy / all guitars, bass, keyboards, drums programmed and sequenced on tracks 1-7; guitar solo, intro and outro on track 8; end guitar section (all instruments) on track 9
- Matt Bradley / vocals; all instruments on track 8 except guitar solo, intro and outro
Tracks 1, 4, 6, 9 written by C. Goldy, M. Bradley
Tracks 2, 3, 5, 7 written by C. Goldy
Track 8 written by M. Bradley
Produced and engineered: C. Goldy (tracks 2, 3, 5, 7) and C.Goldy/ M.Bradley (tracks 1, 4, 6, 8, 9)
Mastered by Carl Kennedy
Official DR value: 6
discogs
narod.ru
Правила, инструкции, FAQ!!!
Торрент  Добавлен [26 сен 2019, 22:01] Скачать торрент Магнет ссылка
Скачать торрент
[ Размер 35.17 КБ / Просмотров 9 ]

Статус
Проверен 
 
Размер  437.76 МБ
Приватный: Нет (DHT включён)
.torrent скачан  1
Как залить торрент? | Как скачать Torrent? | Ошибка в торренте? Качайте магнет  


     Отправить личное сообщение
   
Страница 1 из 1
Показать сообщения за:  Поле сортировки  
Начать новую тему Ответить на тему


Сейчас этот форум просматривают: нет зарегистрированных пользователей и гости: 0


Вы не можете начинать темы
Вы не можете отвечать на сообщения
Вы не можете редактировать свои сообщения
Вы не можете удалять свои сообщения
Вы не можете добавлять вложения

Перейти:  
Ресурс не предоставляет электронные версии произведений, а занимается лишь коллекционированием и каталогизацией ссылок, присылаемых и публикуемых на форуме нашими читателями. Если вы являетесь правообладателем какого-либо представленного материала и не желаете чтобы ссылка на него находилась в нашем каталоге, свяжитесь с нами и мы незамедлительно удалим её. Файлы для обмена на трекере предоставлены пользователями сайта, и администрация не несёт ответственности за их содержание. Просьба не заливать файлы, защищенные авторскими правами, а также файлы нелегального содержания!
cron