Начать новую тему Ответить на тему
Статистика раздачи
Размер: 517.51 МБ | Добавлен: 10 июл 2019, 18:12 | Скачали: 0
Сидеров: 0  [0 байт/сек]    Личеров: 0  [0 байт/сек]
Пред. тема | След. тема 

Автор
Сообщение

СообщениеДобавлено: 10 июл 2019, 18:12 

Ответить с цитатой 

Heiress
Жанр: Hardcore / Sludge

Год издания: 2015-2016
Страна: US
Битрейт аудио: lossless
Продолжительность: 01:24:39
Наличие сканов в содержимом раздачи: нет
Страна-производитель диска: US
Издатель (лейбл): The Mylene Shealth
Номер по каталогу: Shealth055
Аудиокодек: FLAC (*.flac)
Тип рипа: image+.cue
Источник (релизер): CD из личной коллекции
Треклист:
01. Of Great Sorrow [6:20]
02. Dehumaned [1:27]
03. Held [3:22]
04. Blading [3:44]
05. Dismalist [4:07]
06. Old Haunts [3:09]
07. Hover [5:18]
08. Lashings [6:57]
09. Silent Hooves [4:48]
10. Just Two Figures [4:16]
Код:
Exact Audio Copy V1.3 from 2. September 2016
Отчёт EAC об извлечении, выполненном 30. июня 2019, 16:55
Heiress / Of Great Sorrow
Дисковод: ASUS    BW-12B1ST   Adapter: 1  ID: 0
Режим чтения                 : Достоверность
Использование точного потока : Да
Отключение кэша аудио        : Да
Использование указателей C2  : Нет
Коррекция смещения при чтении                     : 6
Способность читать области Lead-in и Lead-out     : Нет
Заполнение пропущенных сэмплов тишиной            : Да
Удаление блоков с тишиной в начале и конце        : Нет
При вычислениях CRC использовались нулевые сэмплы : Да
Интерфейс                                         : Встроенный Win32-интерфейс для Win NT/2000
Выходной формат : Внутренние WAV-операции
Формат сэмплов  : 44.100 Гц; 16 бит; стерео
TOC извлечённого CD
     Трек |   Старт  | Длительность | Начальный сектор | Конечный сектор
    ---------------------------------------------------------------------
       1  |  0:00.00 |    6:20.28   |           0      |      28527
       2  |  6:20.28 |    1:26.63   |       28528      |      35040
       3  |  7:47.16 |    3:21.54   |       35041      |      50169
       4  | 11:08.70 |    3:43.39   |       50170      |      66933
       5  | 14:52.34 |    4:07.27   |       66934      |      85485
       6  | 18:59.61 |    3:08.42   |       85486      |      99627
       7  | 22:08.28 |    5:17.46   |       99628      |     123448
       8  | 27:25.74 |    6:56.39   |      123449      |     154687
       9  | 34:22.38 |    4:48.17   |      154688      |     176304
      10  | 39:10.55 |    4:16.36   |      176305      |     195540
Характеристики диапазона извлечения и сообщения об ошибках
Выбранный диапазон
     Имя файла D:\EAC\Evgenius1986\Heiress - 2015 - Of Great Sorrow (The Mylene Sheath - Sheath055)\Heiress - 2015 - Of Great Sorrow.wav
     Пиковый уровень 100.0 %
     Скорость извлечения 3.0 X
     Качество диапазона 99.9 %
     CRC теста 6121C0FA
     CRC копии 6121C0FA
     Копирование... OK
Ошибок не произошло
AccurateRip: сводка
Трек  1  отсутствует в базе данных
Трек  2  отсутствует в базе данных
Трек  3  отсутствует в базе данных
Трек  4  отсутствует в базе данных
Трек  5  отсутствует в базе данных
Трек  6  отсутствует в базе данных
Трек  7  отсутствует в базе данных
Трек  8  отсутствует в базе данных
Трек  9  отсутствует в базе данных
Трек 10  отсутствует в базе данных
Ни одного трека нет в базе AccurateRip
Конец отчёта
---- CUETools DB Plugin V2.1.6
[CTDB TOCID: g3naQP.qOCvDF3vumFvkgHHOtCw-] found
Submit result: g3naQP.qOCvDF3vumFvkgHHOtCw- has been confirmed
Track | CTDB Status
  1   | (2/2) Accurately ripped
  2   | (2/2) Accurately ripped
  3   | (2/2) Accurately ripped
  4   | (2/2) Accurately ripped
  5   | (2/2) Accurately ripped
  6   | (2/2) Accurately ripped
  7   | (2/2) Accurately ripped
  8   | (2/2) Accurately ripped
  9   | (2/2) Accurately ripped
 10   | (2/2) Accurately ripped
==== Контрольная сумма отчёта E5DF100AA91DC583F00775B4BF446A27D4564B2E35D033168AAF2CF4AD544FFC ====
#777Страна-производитель диска: US
Издатель (лейбл): The Mylene Shealth
Номер по каталогу: Shealth057
Аудиокодек: FLAC (*.flac)
Тип рипа: image+.cue
Источник (релизер): CD из личной коллекции
Треклист:
1. Space Legs [4:53]
02. Corrections [3:18]
03. Night Wave [5:45]
04. Lift [7:44]
05. A Veil In Between [6:46]
06. Up Into Blackness [5:16]
07. Shelf Life [4:41]
08. The Shape of Clouds [1:02]
09. Essex [4:22]
Код:
Exact Audio Copy V1.3 from 2. September 2016
Отчёт EAC об извлечении, выполненном 30. июня 2019, 17:15
Heiress / Made Wrong
Дисковод: ASUS    BW-12B1ST   Adapter: 1  ID: 0
Режим чтения                 : Достоверность
Использование точного потока : Да
Отключение кэша аудио        : Да
Использование указателей C2  : Нет
Коррекция смещения при чтении                     : 6
Способность читать области Lead-in и Lead-out     : Нет
Заполнение пропущенных сэмплов тишиной            : Да
Удаление блоков с тишиной в начале и конце        : Нет
При вычислениях CRC использовались нулевые сэмплы : Да
Интерфейс                                         : Встроенный Win32-интерфейс для Win NT/2000
Выходной формат : Внутренние WAV-операции
Формат сэмплов  : 44.100 Гц; 16 бит; стерео
TOC извлечённого CD
     Трек |   Старт  | Длительность | Начальный сектор | Конечный сектор
    ---------------------------------------------------------------------
       1  |  0:00.00 |    2:21.43   |           0      |      10617
       2  |  2:21.43 |    5:18.67   |       10618      |      34534
       3  |  7:40.35 |    6:39.03   |       34535      |      64462
       4  | 14:19.38 |    7:10.52   |       64463      |      96764
       5  | 21:30.15 |    5:37.00   |       96765      |     122039
       6  | 27:07.15 |    5:10.02   |      122040      |     145291
       7  | 32:17.17 |    8:54.44   |      145292      |     185385
Характеристики диапазона извлечения и сообщения об ошибках
Выбранный диапазон
     Имя файла D:\EAC\Evgenius1986\Heiress - 2016 - Made Wrong (The Mylene Sheath - Sheath057)\Heiress - 2016 - Made Wrong.wav
     Пиковый уровень 100.0 %
     Скорость извлечения 6.6 X
     Качество диапазона 100.0 %
     CRC теста 8D5EE199
     CRC копии 8D5EE199
     Копирование... OK
Ошибок не произошло
AccurateRip: сводка
Трек  1  отсутствует в базе данных
Трек  2  отсутствует в базе данных
Трек  3  отсутствует в базе данных
Трек  4  отсутствует в базе данных
Трек  5  отсутствует в базе данных
Трек  6  отсутствует в базе данных
Трек  7  отсутствует в базе данных
Ни одного трека нет в базе AccurateRip
Конец отчёта
---- CUETools DB Plugin V2.1.6
[CTDB TOCID: RaWWHv9jQq3MH9uTP72yzULLo2I-] found
Submit result: RaWWHv9jQq3MH9uTP72yzULLo2I- has been confirmed
Track | CTDB Status
  1   | (1/1) Accurately ripped
  2   | (1/1) Accurately ripped
  3   | (1/1) Accurately ripped
  4   | (1/1) Accurately ripped
  5   | (1/1) Accurately ripped
  6   | (1/1) Accurately ripped
  7   | (1/1) Accurately ripped
==== Контрольная сумма отчёта 574255418BA34F5C9F7C9D7BDC02E79CCF4BA328A4341A6261453C840DACE8FA ====
Правила, инструкции, FAQ!!!
Торрент  Добавлен [10 июл 2019, 18:12] Скачать торрент Магнет ссылка
Скачать торрент
[ Размер 41.5 КБ / Просмотров 7 ]

Статус
Проверен 
 
Размер  517.51 МБ
Приватный: Нет (DHT включён)
.torrent скачан  0
Как залить торрент? | Как скачать Torrent? | Ошибка в торренте? Качайте магнет  


     Отправить личное сообщение
   
Страница 1 из 1
Показать сообщения за:  Поле сортировки  
Начать новую тему Ответить на тему


Сейчас этот форум просматривают: нет зарегистрированных пользователей и гости: 0


Вы не можете начинать темы
Вы не можете отвечать на сообщения
Вы не можете редактировать свои сообщения
Вы не можете удалять свои сообщения
Вы не можете добавлять вложения

Перейти:  
Ресурс не предоставляет электронные версии произведений, а занимается лишь коллекционированием и каталогизацией ссылок, присылаемых и публикуемых на форуме нашими читателями. Если вы являетесь правообладателем какого-либо представленного материала и не желаете чтобы ссылка на него находилась в нашем каталоге, свяжитесь с нами и мы незамедлительно удалим её. Файлы для обмена на трекере предоставлены пользователями сайта, и администрация не несёт ответственности за их содержание. Просьба не заливать файлы, защищенные авторскими правами, а также файлы нелегального содержания!
cron