Начать новую тему Ответить на тему
Статистика раздачи
Размер: 1.31 ГБ | Добавлен: 08 июн 2019, 08:57 | Скачали: 2
Сидеров: 0  [0 байт/сек]    Личеров: 0  [0 байт/сек]
Пред. тема | След. тема 

Автор
Сообщение

СообщениеДобавлено: 08 июн 2019, 08:57 

Ответить с цитатой 

Gunta Abele / Magnificello - Kodaly, Vasks, Cassado
Формат записи/Источник записи: [TR24][OF]
Наличие водяных знаков: Нет
Год издания/переиздания диска: 2019
Жанр: Classical
Издатель (лейбл): SKANI
Продолжительность: 01:05:00
Наличие сканов в содержимом раздачи: Буклет PDF
Треклист:
Kodály: Sonata for Solo Cello, Op. 8 32:33
01. I. Allegro maestoso ma appassionato 8:46
02. II. Adagio (Con grand' espressione) 11:50
03. III. Allegro molto vivace 11:57
Vasks: 'The Book' for Solo Cello 15:41
04. I. Fortissimo 6:32
05. II. Pianissimo 9:09
Cassadó: Suite for Solo Cello 16:45
06. I. Preludio-Fantasia 5:51
07. II. Sardana 5:04
08. III. Intermezzo e Danza Finale 5:50
Gunta Abele (cello)
Контейнер: FLAC (*.flac)
Тип рипа: tracks
Разрядность: 24/96
Формат: PCM
Количество каналов: 2.0
Код:
foobar2000 1.4.3 / Dynamic Range Meter 1.1.1
log date: 2019-06-05 22:19:10
--------------------------------------------------------------------------------
Analyzed: Gunta Abele / Kodály, Vasks, Cassadó: Magnificello
--------------------------------------------------------------------------------
DR         Peak         RMS     Duration Track
--------------------------------------------------------------------------------
DR9       -0.20 dB   -12.57 dB      8:47 01-Sonata for Solo Cello, Op. 8: I. Allegro maestoso ma appassionato
DR10      -0.20 dB   -14.95 dB     11:51 02-Sonata for Solo Cello, Op. 8: II. Adagio (Con grand' espressione)
DR8        0.00 dB   -11.50 dB     11:58 03-Sonata for Solo Cello, Op. 8: III. Allegro molto vivace
DR9       -0.19 dB   -11.69 dB      6:33 04-"The Book" for Solo Cello: I. Fortissimo
DR10      -0.20 dB   -16.28 dB      9:09 05-"The Book" for Solo Cello: II. Pianissimo
DR10      -0.20 dB   -14.10 dB      5:51 06-Suite for Solo Cello: I. Preludio-Fantasia
DR9       -0.20 dB   -13.05 dB      5:04 07-Suite for Solo Cello: II. Sardana
DR8       -0.11 dB   -12.98 dB      5:50 08-Suite for Solo Cello: III. Intermezzo e Danza Finale
--------------------------------------------------------------------------------
Number of tracks:  8
Official DR value: DR9
Samplerate:        96000 Hz
Channels:          2
Bits per sample:   24
Bitrate:           2848 kbps
Codec:             FLAC
================================================================================
Источник (релизер): https://www.prestomusic.com/classical/products/8617189--magnificello
Правила, инструкции, FAQ!!!
Торрент  Добавлен [08 июн 2019, 08:57] Скачать торрент Магнет ссылка
Скачать торрент
[ Размер 27.56 КБ / Просмотров 7 ]

Статус
Проверен 
 
Размер  1.31 ГБ
Приватный: Нет (DHT включён)
.torrent скачан  2
Как залить торрент? | Как скачать Torrent? | Ошибка в торренте? Качайте магнет  


     Отправить личное сообщение
   
Страница 1 из 1
Показать сообщения за:  Поле сортировки  
Начать новую тему Ответить на тему


Сейчас этот форум просматривают: нет зарегистрированных пользователей и гости: 0


Вы не можете начинать темы
Вы не можете отвечать на сообщения
Вы не можете редактировать свои сообщения
Вы не можете удалять свои сообщения
Вы не можете добавлять вложения

Перейти:  
Ресурс не предоставляет электронные версии произведений, а занимается лишь коллекционированием и каталогизацией ссылок, присылаемых и публикуемых на форуме нашими читателями. Если вы являетесь правообладателем какого-либо представленного материала и не желаете чтобы ссылка на него находилась в нашем каталоге, свяжитесь с нами и мы незамедлительно удалим её. Файлы для обмена на трекере предоставлены пользователями сайта, и администрация не несёт ответственности за их содержание. Просьба не заливать файлы, защищенные авторскими правами, а также файлы нелегального содержания!
cron