Начать новую тему Ответить на тему
Статистика раздачи
Размер: 383.88 МБ | Добавлен: 29 сен 2019, 14:40 | Скачали: 2
Сидеров: 91  [0 байт/сек]    Личеров: 28  [0 байт/сек]
Пред. тема | След. тема 

Автор
Сообщение

СообщениеДобавлено: 29 сен 2019, 14:40 

Ответить с цитатой 

The 69 Eyes / West End
Жанр: Gothic Rock
Носитель: CD
Страна-производитель диска (релиза): Germany
Год издания: 2019
Издатель (лейбл): Nuclear Blast GmbH/Helsinki Vampires Inc Oy
Номер по каталогу: NB 4492-0-1
Страна исполнителя (группы): Finland
Аудиокодек: FLAC (*.flac)
Тип рипа: image+.cue
Продолжительность: 00:48:44
Источник: собственный рип
Наличие сканов в содержимом раздачи: да
Треклист:
01. Two Horns Up (feat. Dani Filth) 03:58
02. 27 & Done 04:17
03. Black Orchid 04:15
04. Change 05:38
05. Burn Witch Burn 03:17
06. Cheyenna 04:09
07. The Last House on the Left (feat. Wednesday 13, Calico Cooper & Dani Filth) 03:47
08. Death & Desire 04:41
09. Outsiders 03:37
10. Be Here Now 04:20
11. Hell Has No Mercy 06:44
Код:
Exact Audio Copy V1.3 from 2. September 2016
EAC extraction logfile from 19. September 2019, 12:52
The 69 Eyes / West End
Used drive  : HP      DVD Writer 1170d   Adapter: 1  ID: 1
Read mode               : Secure
Utilize accurate stream : Yes
Defeat audio cache      : Yes
Make use of C2 pointers : No
Read offset correction                      : 6
Overread into Lead-In and Lead-Out          : No
Fill up missing offset samples with silence : Yes
Delete leading and trailing silent blocks   : No
Null samples used in CRC calculations       : Yes
Used interface                              : Native Win32 interface for Win NT & 2000
Used output format              : User Defined Encoder
Selected bitrate                : 1024 kBit/s
Quality                         : High
Add ID3 tag                     : No
Command line compressor         : C:\Program Files (x86)\Exact Audio Copy\Flac\flac.exe
Additional command line options : -V -8 -T "Date=%year%" -T "Genre=%genre%" %source%
TOC of the extracted CD
     Track |   Start  |  Length  | Start sector | End sector
    ---------------------------------------------------------
        1  |  0:00.00 |  3:57.68 |         0    |    17842
        2  |  3:57.68 |  4:17.25 |     17843    |    37142
        3  |  8:15.18 |  4:15.31 |     37143    |    56298
        4  | 12:30.49 |  5:38.35 |     56299    |    81683
        5  | 18:09.09 |  3:17.21 |     81684    |    96479
        6  | 21:26.30 |  4:09.21 |     96480    |   115175
        7  | 25:35.51 |  3:47.05 |    115176    |   132205
        8  | 29:22.56 |  4:40.48 |    132206    |   153253
        9  | 34:03.29 |  3:36.62 |    153254    |   169515
       10  | 37:40.16 |  4:19.72 |    169516    |   189012
       11  | 42:00.13 |  6:43.62 |    189013    |   219299
Range status and errors
Selected range
     Filename C:\EAC\ungern666\The 69 Eyes - West End.wav
     Peak level 100.0 %
     Extraction speed 6.8 X
     Range quality 100.0 %
     Test CRC 654CD838
     Copy CRC 654CD838
     Copy OK
No errors occurred
AccurateRip summary
Track  1  not present in database
Track  2  not present in database
Track  3  not present in database
Track  4  not present in database
Track  5  not present in database
Track  6  not present in database
Track  7  not present in database
Track  8  not present in database
Track  9  not present in database
Track 10  not present in database
Track 11  not present in database
None of the tracks are present in the AccurateRip database
End of status report
---- CUETools DB Plugin V2.1.6
[CTDB TOCID: v6SJyeDR7MaP33DyasETVGOcetY-] found
Submit result: v6SJyeDR7MaP33DyasETVGOcetY- has been confirmed
Track | CTDB Status
  1   | (4/4) Accurately ripped
  2   | (4/4) Accurately ripped
  3   | (4/4) Accurately ripped
  4   | (4/4) Accurately ripped
  5   | (4/4) Accurately ripped
  6   | (4/4) Accurately ripped
  7   | (4/4) Accurately ripped
  8   | (4/4) Accurately ripped
  9   | (4/4) Accurately ripped
 10   | (4/4) Accurately ripped
 11   | (4/4) Accurately ripped
==== Log checksum 33846B2C9F1A1D801168F7CE9F4D5C3DBD66919E4C2A7239B904D96440A7DF80 ====


Материал предназначен для ознакомления!
Правила, инструкции, FAQ!!!
Торрент  Добавлен [29 сен 2019, 14:40] Скачать торрент Магнет ссылка
Скачать торрент
[ Размер 16.05 КБ / Просмотров 12 ]

Статус
Проверен 
 
Размер  383.88 МБ
Приватный: Нет (DHT включён)
.torrent скачан  2
Как залить торрент? | Как скачать Torrent? | Ошибка в торренте? Качайте магнет  


     Отправить личное сообщение
   
Страница 1 из 1
Показать сообщения за:  Поле сортировки  
Начать новую тему Ответить на тему


Сейчас этот форум просматривают: нет зарегистрированных пользователей и гости: 0


Вы не можете начинать темы
Вы не можете отвечать на сообщения
Вы не можете редактировать свои сообщения
Вы не можете удалять свои сообщения
Вы не можете добавлять вложения

Перейти:  
Ресурс не предоставляет электронные версии произведений, а занимается лишь коллекционированием и каталогизацией ссылок, присылаемых и публикуемых на форуме нашими читателями. Если вы являетесь правообладателем какого-либо представленного материала и не желаете чтобы ссылка на него находилась в нашем каталоге, свяжитесь с нами и мы незамедлительно удалим её. Файлы для обмена на трекере предоставлены пользователями сайта, и администрация не несёт ответственности за их содержание. Просьба не заливать файлы, защищенные авторскими правами, а также файлы нелегального содержания!
cron