Начать новую тему Ответить на тему
Статистика раздачи
Размер: 349.14 МБ | Добавлен: 05 сен 2019, 22:06 | Скачали: 1
Сидеров: 1  [0 байт/сек]    Личеров: 0  [0 байт/сек]
Пред. тема | След. тема 

Автор
Сообщение

СообщениеДобавлено: 05 сен 2019, 22:06 

Ответить с цитатой 

Harvey Mason (The Mase) / Groovin' You (Japan, remastered 2017)
Жанр: Funk / Soul / Disco
Носитель: CD
Страна-производитель диска (релиза): Japan
Год издания: 1979 (2017)
Издатель (лейбл): Arista (Sony Music Labels Inc.)
Номер по каталогу: SICJ 269
Страна исполнителя (группы): U.S.A.
Аудиокодек: FLAC (*.flac)
Тип рипа: image+.cue
Продолжительность: 00:52:15
Источник: собственный рип
Наличие сканов в содержимом раздачи: да
Треклист:
01. I'd Still Be There (3:49)
02. Groovin' You (4:56)
03. The Race (3:21)
04. We Can (5:12)
05. Never Give You Up (3:48)
06. Say It Again (5:07)
07. Here Today, Gone Tomorrow (4:22)
08. Wave (6:21)
09. Kauai (5:03)
10. Groovin' You (12" Mix) (6:19)
11. Groovin' You (7" Mix) (3:56)
Код:
Exact Audio Copy V1.0 beta 6 from 9. April 2015
Отчёт EAC об извлечении, выполненном 24. августа 2019, 12:54
Harvey Mason / Groovin' You
Дисковод: ATAPI   iHAP122   W   Adapter: 1  ID: 1
Режим чтения                 : Достоверность
Использование точного потока : Да
Отключение кэша аудио        : Да
Использование указателей C2  : Нет
Коррекция смещения при чтении                     : 6
Способность читать области Lead-in и Lead-out     : Нет
Заполнение пропущенных сэмплов тишиной            : Да
Удаление блоков с тишиной в начале и конце        : Нет
При вычислениях CRC использовались нулевые сэмплы : Да
Интерфейс                                         : Встроенный Win32-интерфейс для Win NT/2000
Выходной формат : Внутренние WAV-операции
Формат сэмплов  : 44.100 Гц; 16 бит; стерео
TOC извлечённого CD
     Трек |   Старт  | Длительность | Начальный сектор | Конечный сектор
    ---------------------------------------------------------------------
       1  |  0:00.00 |    3:49.13   |           0      |      17187
       2  |  3:49.13 |    4:55.72   |       17188      |      39384
       3  |  8:45.10 |    3:21.10   |       39385      |      54469
       4  | 12:06.20 |    5:12.09   |       54470      |      77878
       5  | 17:18.29 |    3:48.33   |       77879      |      95011
       6  | 21:06.62 |    5:06.69   |       95012      |     118030
       7  | 26:13.56 |    4:22.18   |      118031      |     137698
       8  | 30:35.74 |    6:21.03   |      137699      |     166276
       9  | 36:57.02 |    5:03.12   |      166277      |     189013
      10  | 42:00.14 |    6:18.74   |      189014      |     217437
      11  | 48:19.13 |    3:55.48   |      217438      |     235110
Характеристики диапазона извлечения и сообщения об ошибках
Выбранный диапазон
     Имя файла D:\obraz\Harvey Mason 1979 Groovin' You\Harvey Mason - Groovin' You.wav
     Пиковый уровень 100.0 %
     Скорость извлечения 1.1 X
     Качество диапазона 100.0 %
     CRC теста C7376AFD
     CRC копии C7376AFD
     Копирование... OK
Ошибок не произошло
AccurateRip: сводка
Трек  1  : извлечено точно (доверие 1)  [4831479F]  (AR v2)
Трек  2  : извлечено точно (доверие 1)  [BD6E2279]  (AR v2)
Трек  3  : извлечено точно (доверие 1)  [677C1D0A]  (AR v2)
Трек  4  : извлечено точно (доверие 1)  [C2855069]  (AR v2)
Трек  5  : извлечено точно (доверие 1)  [45F9DD5A]  (AR v2)
Трек  6  : извлечено точно (доверие 1)  [6EFCA6DA]  (AR v2)
Трек  7  : извлечено точно (доверие 1)  [637144E0]  (AR v2)
Трек  8  : извлечено точно (доверие 1)  [57312839]  (AR v2)
Трек  9  : извлечено точно (доверие 1)  [E3C687B4]  (AR v2)
Трек 10  : извлечено точно (доверие 1)  [783CD266]  (AR v2)
Трек 11  : извлечено точно (доверие 1)  [BFE4356A]  (AR v2)
Все треки извлечены точно
Конец отчёта
---- CUETools DB Plugin V2.1.6
[CTDB TOCID: 63jNxjsJBxnr1xORiacKs456Z7U-] found
Submit result: 63jNxjsJBxnr1xORiacKs456Z7U- has been confirmed
Track | CTDB Status
  1   | (5/5) Accurately ripped
  2   | (5/5) Accurately ripped
  3   | (5/5) Accurately ripped
  4   | (5/5) Accurately ripped
  5   | (5/5) Accurately ripped
  6   | (5/5) Accurately ripped
  7   | (5/5) Accurately ripped
  8   | (5/5) Accurately ripped
  9   | (5/5) Accurately ripped
 10   | (5/5) Accurately ripped
 11   | (5/5) Accurately ripped
==== Контрольная сумма отчёта EB480B76B135E021F1F47DBA0CDC5571B691A3B2F3A612AEF6EAE494300829FE ====
Код:
REM GENRE Disco/Funk
REM DATE 1979
REM DISCID 870C3E0B
REM COMMENT "ExactAudioCopy v1.0b6"
PERFORMER "Harvey Mason"
TITLE "Groovin' You"
FILE "Harvey Mason - Groovin' You.wav" WAVE
  TRACK 01 AUDIO
    TITLE "I'd Still Be There"
    PERFORMER "Harvey Mason"
    INDEX 01 00:00:00
  TRACK 02 AUDIO
    TITLE "Groovin' You"
    PERFORMER "Harvey Mason"
    INDEX 00 03:48:01
    INDEX 01 03:49:13
  TRACK 03 AUDIO
    TITLE "The Race"
    PERFORMER "Harvey Mason"
    INDEX 00 08:43:73
    INDEX 01 08:45:10
  TRACK 04 AUDIO
    TITLE "We Can"
    PERFORMER "Harvey Mason"
    INDEX 00 12:05:08
    INDEX 01 12:06:20
  TRACK 05 AUDIO
    TITLE "Never Give Up"
    PERFORMER "Harvey Mason"
    INDEX 00 17:17:17
    INDEX 01 17:18:29
  TRACK 06 AUDIO
    TITLE "Say It Again"
    PERFORMER "Harvey Mason"
    INDEX 00 21:05:50
    INDEX 01 21:06:62
  TRACK 07 AUDIO
    TITLE "Here Today, Gone Tomorrow"
    PERFORMER "Harvey Mason"
    INDEX 00 26:12:44
    INDEX 01 26:13:56
  TRACK 08 AUDIO
    TITLE "Wave"
    PERFORMER "Harvey Mason"
    INDEX 00 30:34:62
    INDEX 01 30:35:74
  TRACK 09 AUDIO
    TITLE "Kauai"
    PERFORMER "Harvey Mason"
    INDEX 00 36:55:65
    INDEX 01 36:57:02
  TRACK 10 AUDIO
    TITLE "Groovin' You (12'' Mix)"
    PERFORMER "Harvey Mason"
    INDEX 00 41:58:52
    INDEX 01 42:00:14
  TRACK 11 AUDIO
    TITLE "Groovin' You (7'' Mix)"
    PERFORMER "Harvey Mason"
    INDEX 00 48:17:51
    INDEX 01 48:19:13
Harvey Mason
Kenny Mason
Bill Champlin
Stanley Clarke
Ralph MacDonald
Richard Tee
Jerry Hey
Bob James
Steve Lukather
Jerry Peters
Mike Porcaro
Lee Ritenour
David Spinozza
Verdine White
David Williams
Phil Upchurch
Правила, инструкции, FAQ!!!
Торрент  Добавлен [05 сен 2019, 22:06] Скачать торрент Магнет ссылка
Скачать торрент
[ Размер 14.62 КБ / Просмотров 17 ]

Статус
Проверен 
 
Размер  349.14 МБ
Приватный: Нет (DHT включён)
.torrent скачан  1
Как залить торрент? | Как скачать Torrent? | Ошибка в торренте? Качайте магнет  


     Отправить личное сообщение
   
Страница 1 из 1
Показать сообщения за:  Поле сортировки  
Начать новую тему Ответить на тему


Сейчас этот форум просматривают: нет зарегистрированных пользователей и гости: 0


Вы не можете начинать темы
Вы не можете отвечать на сообщения
Вы не можете редактировать свои сообщения
Вы не можете удалять свои сообщения
Вы не можете добавлять вложения

Перейти:  
Ресурс не предоставляет электронные версии произведений, а занимается лишь коллекционированием и каталогизацией ссылок, присылаемых и публикуемых на форуме нашими читателями. Если вы являетесь правообладателем какого-либо представленного материала и не желаете чтобы ссылка на него находилась в нашем каталоге, свяжитесь с нами и мы незамедлительно удалим её. Файлы для обмена на трекере предоставлены пользователями сайта, и администрация не несёт ответственности за их содержание. Просьба не заливать файлы, защищенные авторскими правами, а также файлы нелегального содержания!
cron