Начать новую тему Ответить на тему
Статистика раздачи
Размер: 814.84 МБ | Добавлен: 08 июн 2019, 08:56 | Скачали: 1
Сидеров: 0  [0 байт/сек]    Личеров: 0  [0 байт/сек]
Пред. тема | След. тема 

Автор
Сообщение

СообщениеДобавлено: 08 июн 2019, 08:56 

Ответить с цитатой 

Francesco Piemontesi / Liszt - Annees de Pelerinage; Deuxieme annee - Italie & Legende 1
Формат записи/Источник записи: [TR24][OF]
Наличие водяных знаков: Нет
Год издания/переиздания диска: 2019
Жанр: Classical
Издатель (лейбл): Orfeo
Продолжительность: 00:50:32
Наличие сканов в содержимом раздачи: Буклет PDF
Треклист:
01. Liszt: Legendes (2) for piano, S. 175 - No. 1, St François d'Assise (La prédication aux oiseaux) 10:28
Liszt: Années de Pèlerinage. Deuxième Année - Italie, S161 / R10b 40:03
02. No. 1, Sposalizio 7:21
03. No. 2, Il pensieroso 4:54
04. No. 3, Canzonetta del Salvator Rosa 3:04
05. No. 4, Sonetto 47 del Petrarca 6:00
06. No. 5, Sonetto 104 del Petrarca 6:17
07. No. 6, Sonetto 123 del Petrarca 6:15
08. No. 7, Après une lecture du dante. Fantasia quasi sonata 6:12
Francesco Piemontesi (piano)
Контейнер: FLAC (*.flac)
Тип рипа: tracks
Разрядность: 24/96
Формат: PCM
Количество каналов: 2.0
Код:
foobar2000 1.4.3 / Dynamic Range Meter 1.1.1
log date: 2019-05-28 17:57:54
--------------------------------------------------------------------------------
Analyzed: Francesco Piemontesi / Liszt: Années de Pèlerinage; Deuxiéme année - Italie & Legende 1
--------------------------------------------------------------------------------
DR         Peak         RMS     Duration Track
--------------------------------------------------------------------------------
DR14      -0.10 dB   -21.05 dB     10:29 01-2 Légendes, S.175: No. 1, St François d'Assise (La prédication aux oiseaux)
DR14      -0.10 dB   -21.08 dB      7:21 02-Années de pèlerinage II, S.161: No. 1, Sposalizio
DR15      -0.85 dB   -24.93 dB      4:54 03-Années de pèlerinage II, S.161: No. 2, Il pensieroso
DR13      -3.45 dB   -21.67 dB      3:05 04-Années de pèlerinage II, S.161: No. 3, Canzonetta del Salvator Rosa
DR14      -1.28 dB   -23.51 dB      6:01 05-Années de pèlerinage II, S.161: No. 4, Sonetto 47 del Petrarca
DR12      -1.16 dB   -19.22 dB      6:18 06-Années de pèlerinage II, S.161: No. 5, Sonetto 104 del Petrarca
DR15      -2.66 dB   -24.72 dB      6:15 07-Années de pèlerinage II, S.161: No. 6, Sonetto 123 del Petrarca
DR11      -0.10 dB   -16.36 dB      6:12 08-Années de pèlerinage II, S.161: No. 7, Après une lecture du dante. Fantasia quasi sonata
--------------------------------------------------------------------------------
Number of tracks:  8
Official DR value: DR14
Samplerate:        96000 Hz
Channels:          2
Bits per sample:   24
Bitrate:           2340 kbps
Codec:             FLAC
================================================================================
Источник (релизер): https://www.qobuz.com/us-en/album/liszt-annees-de-pelerinage-ii-s161-francesco-pi...si/hoek5z2bc6eoa
Правила, инструкции, FAQ!!!
Торрент  Добавлен [08 июн 2019, 08:56] Скачать торрент Магнет ссылка
Скачать торрент
[ Размер 33.28 КБ / Просмотров 5 ]

Статус
Проверен 
 
Размер  814.84 МБ
Приватный: Нет (DHT включён)
.torrent скачан  1
Как залить торрент? | Как скачать Torrent? | Ошибка в торренте? Качайте магнет  


     Отправить личное сообщение
   
Страница 1 из 1
Показать сообщения за:  Поле сортировки  
Начать новую тему Ответить на тему


Сейчас этот форум просматривают: нет зарегистрированных пользователей и гости: 0


Вы не можете начинать темы
Вы не можете отвечать на сообщения
Вы не можете редактировать свои сообщения
Вы не можете удалять свои сообщения
Вы не можете добавлять вложения

Перейти:  
Ресурс не предоставляет электронные версии произведений, а занимается лишь коллекционированием и каталогизацией ссылок, присылаемых и публикуемых на форуме нашими читателями. Если вы являетесь правообладателем какого-либо представленного материала и не желаете чтобы ссылка на него находилась в нашем каталоге, свяжитесь с нами и мы незамедлительно удалим её. Файлы для обмена на трекере предоставлены пользователями сайта, и администрация не несёт ответственности за их содержание. Просьба не заливать файлы, защищенные авторскими правами, а также файлы нелегального содержания!
cron