Начать новую тему Ответить на тему
Статистика раздачи
Размер: 886.5 МБ | Добавлен: 08 июн 2019, 08:56 | Скачали: 1
Сидеров: 0  [0 байт/сек]    Личеров: 0  [0 байт/сек]
Пред. тема | След. тема 

Автор
Сообщение

СообщениеДобавлено: 08 июн 2019, 08:56 

Ответить с цитатой 

Francesco Piemontesi / Liszt - Annees de pelerinage I, S. 160 Suisse & Legende No. 2
Формат записи/Источник записи: [TR24][OF]
Наличие водяных знаков: Нет
Год издания/переиздания диска: 2018
Жанр: Classical
Издатель (лейбл): Orfeo
Продолжительность: 00:55:13
Наличие сканов в содержимом раздачи: Буклет PDF
Треклист:
Liszt: Années de pèlerinage, 1ère année, Suisse (9 pieces), S. 160 47:00
01. No. 1, Chapelle de Guillaume Tell 5:39
02. No. 2, Au lac de Wallenstadt 3:24
03. No. 3, Pastorale 1:29
04. No. 4, Au bord d'une source 3:48
05. No. 5, Orage 4:12
06. No. 6, Vallée d'Obermann 12:42
07. No. 7, Eglogue 3:13
08. No. 8, Le mal du pays 5:55
09. No. 9, Les cloches de Genève 6:38
10. Liszt: Legendes (2) for piano, S. 175 - No. 2, St. François de Paule marchant sur les flots 8:13
Francesco Piemontesi (piano)
Recorded: January 2017
Recording Venue: Auditorio Stelio Molo RSI, Lugano, Switzerland
Контейнер: FLAC (*.flac)
Тип рипа: tracks
Разрядность: 24/96
Формат: PCM
Количество каналов: 2.0
Код:
foobar2000 1.4.3 / Dynamic Range Meter 1.1.1
log date: 2019-05-28 17:58:21
--------------------------------------------------------------------------------
Analyzed: Francesco Piemontesi / Liszt: Années de pèlerinage I, S. 160 "Suisse" & Légende No. 2
--------------------------------------------------------------------------------
DR         Peak         RMS     Duration Track
--------------------------------------------------------------------------------
DR13      -0.10 dB   -17.94 dB      5:40 01-Annees de pelerinage I, S. 160 'Suisse' - No. 1. La chapelle de Guillaume Tell (The Chapel of William Tell)
DR14      -7.73 dB   -27.05 dB      3:25 02-Annees de pelerinage I, S. 160 'Suisse' - No. 2. Au lac de Wallenstadt (At the Lake of Wallenstadt)
DR11      -4.34 dB   -21.19 dB      1:30 03-Annees de pelerinage I, S. 160 'Suisse' - No. 3. Pastorale (Pastoral)
DR12      -4.00 dB   -22.01 dB      3:48 04-Annees de pelerinage I, S. 160 'Suisse' - No. 4. Au bord d'une source (Beside a Spring)
DR11      -0.10 dB   -14.83 dB      4:12 05-Annees de pelerinage I, S. 160 'Suisse' - No. 5. Orage (Storm)
DR14      -0.22 dB   -20.35 dB     12:43 06-Annees de pelerinage I, S. 160 'Suisse' - No. 6. Vallee d'Obermann (Valley of Obermann)
DR16      -7.36 dB   -29.02 dB      3:13 07-Annees de pelerinage I, S. 160 'Suisse' - No. 7. Eglogue (Eclogue)
DR16      -6.47 dB   -29.98 dB      5:56 08-Annees de pelerinage I, S. 160 'Suisse' - No. 8. Le mal du pays (Homesickness)
DR14      -2.40 dB   -24.23 dB      6:39 09-Annees de pelerinage I, S. 160 'Suisse' - No. 9. Les cloches de Geneve (The Bells of Geneva)
DR12      -0.10 dB   -17.15 dB      8:14 10-2 Legendes, S175/R17 - No. 2. St. Francois de Paule marchant sur les flots
--------------------------------------------------------------------------------
Number of tracks:  10
Official DR value: DR13
Samplerate:        96000 Hz
Channels:          2
Bits per sample:   24
Bitrate:           2311 kbps
Codec:             FLAC
================================================================================
Источник (релизер): https://www.prestomusic.com/classical/products/8432782--liszt-annees-de-pelerinag...suisse-legende-2
Правила, инструкции, FAQ!!!
Торрент  Добавлен [08 июн 2019, 08:56] Скачать торрент Магнет ссылка
Скачать торрент
[ Размер 36.43 КБ / Просмотров 4 ]

Статус
Проверен 
 
Размер  886.5 МБ
Приватный: Нет (DHT включён)
.torrent скачан  1
Как залить торрент? | Как скачать Torrent? | Ошибка в торренте? Качайте магнет  


     Отправить личное сообщение
   
Страница 1 из 1
Показать сообщения за:  Поле сортировки  
Начать новую тему Ответить на тему


Сейчас этот форум просматривают: нет зарегистрированных пользователей и гости: 0


Вы не можете начинать темы
Вы не можете отвечать на сообщения
Вы не можете редактировать свои сообщения
Вы не можете удалять свои сообщения
Вы не можете добавлять вложения

Перейти:  
Ресурс не предоставляет электронные версии произведений, а занимается лишь коллекционированием и каталогизацией ссылок, присылаемых и публикуемых на форуме нашими читателями. Если вы являетесь правообладателем какого-либо представленного материала и не желаете чтобы ссылка на него находилась в нашем каталоге, свяжитесь с нами и мы незамедлительно удалим её. Файлы для обмена на трекере предоставлены пользователями сайта, и администрация не несёт ответственности за их содержание. Просьба не заливать файлы, защищенные авторскими правами, а также файлы нелегального содержания!