Начать новую тему Ответить на тему
Статистика раздачи
Размер: 1.32 ГБ | Добавлен: 10 сен 2019, 23:23 | Скачали: 0
Сидеров: 0  [0 байт/сек]    Личеров: 0  [0 байт/сек]
Пред. тема | След. тема 

Автор
Сообщение

СообщениеДобавлено: 10 сен 2019, 23:23 

Ответить с цитатой 

Filter - HD видеоклипы
Жанр: Industrial rock, Industrial metal, Alternative metal
Продолжительность: 12м 46с
Годы выпуска: 2010 - 2017
Треклист:
Filter - 2010 - Fades Like A Photograph.mkv
Filter - 2014 - Surprise.mkv
Filter - 2017 - Mother E.mkv
Продолжительность: 4м 24с
Год выпуска: 2010
Качество: WebDLRip
Разрешение видео/развертка: 1080p
Контейнер: MKV
Видео кодек: H.264
Аудио кодек: PCM
Видео: AVC, 1920 x 1080 (16:9), 24.000 к/с, 8000 Кбит/с
Аудио: PCM, 1536 Кбит/с, 48 К/гц, Стерео
Код:
Общее
Уникальный идентификатор                 : 187681991617431751037231265660003786884 (0x8D323C9CD0EF66B07F424148B919A084)
Полное имя                               : D:\Tor\Filter - HD music videos\Filter - 2010 - Fades Like A Photograph.mkv
Формат                                   : Matroska
Версия формата                           : Version 4
Размер файла                             : 300 Мбайт
Продолжительность                        : 4 м. 24 с.
Общий поток                              : 9542 Кбит/сек
Дата кодирования                         : UTC 2019-08-21 21:33:13
Программа кодирования                    : mkvmerge v36.0.0 ('Is That Jazz?') 64-bit
Библиотека кодирования                   : libebml v1.3.9 + libmatroska v1.5.2
Видео
Идентификатор                            : 1
Формат                                   : AVC
Формат/Информация                        : Advanced Video Codec
Профиль формата                          : High@L5.1
Настройки формата                        : CABAC / 16 Ref Frames
Параметр CABAC формата                   : Да
Параметр RefFrames формата               : 16 кадров
Идентификатор кодека                     : V_MPEG4/ISO/AVC
Продолжительность                        : 4 м. 24 с.
Битрейт                                  : 8000 Кбит/сек
Ширина                                   : 1920 пикселей
Высота                                   : 1080 пикселей
Соотношение сторон                       : 16:9
Режим частоты кадров                     : Постоянный
Частота кадров                           : 24,000 кадра/сек
Цветовое пространство                    : YUV
Субдискретизация насыщенности            : 4:2:0
Битовая глубина                          : 8 бит
Тип развёртки                            : Прогрессивная
Бит/(Пиксели*Кадры)                      : 0.161
Размер потока                            : 252 Мбайт (84%)
Библиотека кодирования                   : x264 core 157 r2969 d4099dd
Настройки программы                      : cabac=1 / ref=16 / deblock=1:-3:-3 / analyse=0x3:0x133 / me=tesa / subme=11 / psy=1 / psy_rd=1.00:0.00 / mixed_ref=1 / me_range=48 / chroma_me=1 / trellis=2 / 8x8dct=1 / cqm=0 / deadzone=21,11 / fast_pskip=0 / chroma_qp_offset=-2 / threads=5 / lookahead_threads=1 / sliced_threads=0 / nr=0 / decimate=1 / interlaced=0 / bluray_compat=0 / constrained_intra=0 / bframes=10 / b_pyramid=2 / b_adapt=2 / b_bias=0 / direct=3 / weightb=1 / open_gop=0 / weightp=2 / keyint=240 / keyint_min=24 / scenecut=40 / intra_refresh=0 / rc_lookahead=60 / rc=2pass / mbtree=1 / bitrate=8000 / ratetol=1.0 / qcomp=0.60 / qpmin=0 / qpmax=69 / qpstep=4 / cplxblur=20.0 / qblur=0.5 / ip_ratio=1.40 / aq=1:1.00
Default                                  : Да
Forced                                   : Нет
Аудио
Идентификатор                            : 2
Формат                                   : PCM
Настройки формата                        : Little / Signed
Идентификатор кодека                     : A_PCM/INT/LIT
Продолжительность                        : 4 м. 23 с.
Вид битрейта                             : Постоянный
Битрейт                                  : 1536 Кбит/сек
Каналы                                   : 2 канала
Частота                                  : 48,0 КГц
Частота кадров                           : 32,002 кадра/сек (1500 SPF)
Битовая глубина                          : 16 бит
Размер потока                            : 48,2 Мбайт (16%)
Default                                  : Да
Forced                                   : Нет
Продолжительность: 4м 23с
Год выпуска: 2014
Качество: WebDLRip
Разрешение видео/развертка: 1080p
Контейнер: MKV
Видео кодек: H.264
Аудио кодек: PCM
Видео: AVC, 1920 x 1080 (16:9), 23,976 к/с, 16000 Кбит/с
Аудио: PCM, 1536 Кбит/с, 48 К/гц, Стерео
Код:
Общее
Уникальный идентификатор                 : 118196034571298166808484457178263021274 (0x58EBBA6D350940E0FDF5AB2EB4A166DA)
Полное имя                               : Filter - 2014 - Surprise.mkv
Формат                                   : Matroska
Версия формата                           : Version 4
Размер файла                             : 549 Мбайт
Продолжительность                        : 4 м. 23 с.
Общий поток                              : 17,5 Мбит/сек
Дата кодирования                         : UTC 2019-08-21 12:20:57
Программа кодирования                    : mkvmerge v36.0.0 ('Is That Jazz?') 64-bit
Библиотека кодирования                   : libebml v1.3.9 + libmatroska v1.5.2
Видео
Идентификатор                            : 1
Формат                                   : AVC
Формат/Информация                        : Advanced Video Codec
Профиль формата                          : High@L5.1
Настройки формата                        : CABAC / 16 Ref Frames
Параметр CABAC формата                   : Да
Параметр RefFrames формата               : 16 кадров
Идентификатор кодека                     : V_MPEG4/ISO/AVC
Продолжительность                        : 4 м. 22 с.
Битрейт                                  : 16,0 Мбит/сек
Ширина                                   : 1920 пикселей
Высота                                   : 1080 пикселей
Соотношение сторон                       : 16:9
Режим частоты кадров                     : Постоянный
Частота кадров                           : 23,976 (24000/1001) кадра/сек
Цветовое пространство                    : YUV
Субдискретизация насыщенности            : 4:2:0
Битовая глубина                          : 8 бит
Тип развёртки                            : Прогрессивная
Бит/(Пиксели*Кадры)                      : 0.322
Размер потока                            : 501 Мбайт (91%)
Библиотека кодирования                   : x264 core 157 r2969 d4099dd
Настройки программы                      : cabac=1 / ref=16 / deblock=1:-3:-3 / analyse=0x3:0x133 / me=tesa / subme=11 / psy=1 / psy_rd=1.00:0.00 / mixed_ref=1 / me_range=48 / chroma_me=1 / trellis=2 / 8x8dct=1 / cqm=0 / deadzone=21,11 / fast_pskip=0 / chroma_qp_offset=-2 / threads=5 / lookahead_threads=1 / sliced_threads=0 / nr=0 / decimate=1 / interlaced=0 / bluray_compat=0 / constrained_intra=0 / bframes=16 / b_pyramid=2 / b_adapt=2 / b_bias=0 / direct=3 / weightb=1 / open_gop=0 / weightp=2 / keyint=240 / keyint_min=24 / scenecut=40 / intra_refresh=0 / rc_lookahead=60 / rc=2pass / mbtree=1 / bitrate=16000 / ratetol=1.0 / qcomp=0.60 / qpmin=0 / qpmax=69 / qpstep=4 / cplxblur=20.0 / qblur=0.5 / ip_ratio=1.40 / aq=1:1.00
Язык                                     : English
Default                                  : Да
Forced                                   : Нет
Цветовой диапазон                        : Limited
Основные цвета                           : BT.709
Характеристики трансфера                 : BT.709
Коэффициенты матрицы                     : BT.709
Аудио
Идентификатор                            : 2
Формат                                   : PCM
Настройки формата                        : Little / Signed
Идентификатор кодека                     : A_PCM/INT/LIT
Продолжительность                        : 4 м. 23 с.
Вид битрейта                             : Постоянный
Битрейт                                  : 1536 Кбит/сек
Каналы                                   : 2 канала
Частота                                  : 48,0 КГц
Частота кадров                           : 32,002 кадра/сек (1500 SPF)
Битовая глубина                          : 16 бит
Размер потока                            : 48,2 Мбайт (9%)
Default                                  : Да
Forced                                   : Нет
Продолжительность: 3м 58с
Год выпуска: 2017
Качество: WebDLRip
Разрешение видео/развертка: 1080p
Контейнер: MKV
Видео кодек: H.264
Аудио кодек: PCM
Видео: AVC, 1920 x 816 (2,35:1), 25,000 к/с, 16000 Кбит/с
Аудио: PCM, 1536 Кбит/с, 48 К/гц, Стерео
Код:
Общее
Уникальный идентификатор                 : 33599956513419770510403209415209148462 (0x19471DC1C4DDA8663DFF831B2D1A602E)
Полное имя                               : Filter - 2017 - Mother E.mkv
Формат                                   : Matroska
Версия формата                           : Version 4
Размер файла                             : 499 Мбайт
Продолжительность                        : 3 м. 58 с.
Общий поток                              : 17,6 Мбит/сек
Дата кодирования                         : UTC 2019-08-21 12:09:48
Программа кодирования                    : mkvmerge v36.0.0 ('Is That Jazz?') 64-bit
Библиотека кодирования                   : libebml v1.3.9 + libmatroska v1.5.2
Видео
Идентификатор                            : 1
Формат                                   : AVC
Формат/Информация                        : Advanced Video Codec
Профиль формата                          : High@L5
Настройки формата                        : CABAC / 16 Ref Frames
Параметр CABAC формата                   : Да
Параметр RefFrames формата               : 16 кадров
Идентификатор кодека                     : V_MPEG4/ISO/AVC
Продолжительность                        : 3 м. 58 с.
Битрейт                                  : 16,0 Мбит/сек
Ширина                                   : 1920 пикселей
Высота                                   : 816 пикселей
Соотношение сторон                       : 2,35:1
Режим частоты кадров                     : Постоянный
Частота кадров                           : 25,000 кадров/сек
Цветовое пространство                    : YUV
Субдискретизация насыщенности            : 4:2:0
Битовая глубина                          : 8 бит
Тип развёртки                            : Прогрессивная
Бит/(Пиксели*Кадры)                      : 0.408
Размер потока                            : 455 Мбайт (91%)
Заголовок                                : Alias Data Handler
Библиотека кодирования                   : x264 core 157 r2969 d4099dd
Настройки программы                      : cabac=1 / ref=16 / deblock=1:-2:-2 / analyse=0x3:0x133 / me=tesa / subme=11 / psy=1 / psy_rd=1.00:0.00 / mixed_ref=1 / me_range=48 / chroma_me=1 / trellis=2 / 8x8dct=1 / cqm=0 / deadzone=21,11 / fast_pskip=0 / chroma_qp_offset=-2 / threads=5 / lookahead_threads=1 / sliced_threads=0 / nr=0 / decimate=1 / interlaced=0 / bluray_compat=0 / constrained_intra=0 / bframes=16 / b_pyramid=2 / b_adapt=2 / b_bias=0 / direct=3 / weightb=1 / open_gop=0 / weightp=2 / keyint=250 / keyint_min=25 / scenecut=40 / intra_refresh=0 / rc_lookahead=60 / rc=2pass / mbtree=1 / bitrate=16000 / ratetol=1.0 / qcomp=0.60 / qpmin=0 / qpmax=69 / qpstep=4 / cplxblur=20.0 / qblur=0.5 / ip_ratio=1.40 / aq=1:1.00
Язык                                     : English
Default                                  : Да
Forced                                   : Нет
Цветовой диапазон                        : Limited
Основные цвета                           : BT.709
Характеристики трансфера                 : BT.709
Коэффициенты матрицы                     : BT.709
Аудио
Идентификатор                            : 2
Формат                                   : PCM
Настройки формата                        : Little / Signed
Идентификатор кодека                     : A_PCM/INT/LIT
Продолжительность                        : 3 м. 58 с.
Вид битрейта                             : Постоянный
Битрейт                                  : 1536 Кбит/сек
Каналы                                   : 2 канала
Частота                                  : 48,0 КГц
Частота кадров                           : 32,003 кадра/сек (1500 SPF)
Битовая глубина                          : 16 бит
Размер потока                            : 43,7 Мбайт (9%)
Default                                  : Да
Forced                                   : Нет
Правила, инструкции, FAQ!!!
Торрент  Добавлен [10 сен 2019, 23:23] Скачать торрент Магнет ссылка
Скачать торрент
[ Размер 13.8 КБ / Просмотров 10 ]

Статус
Проверен 
 
Размер  1.32 ГБ
Приватный: Нет (DHT включён)
.torrent скачан  0
Как залить торрент? | Как скачать Torrent? | Ошибка в торренте? Качайте магнет  


     Отправить личное сообщение
   
Страница 1 из 1
Показать сообщения за:  Поле сортировки  
Начать новую тему Ответить на тему


Сейчас этот форум просматривают: нет зарегистрированных пользователей и гости: 0


Вы не можете начинать темы
Вы не можете отвечать на сообщения
Вы не можете редактировать свои сообщения
Вы не можете удалять свои сообщения
Вы не можете добавлять вложения

Перейти:  
Ресурс не предоставляет электронные версии произведений, а занимается лишь коллекционированием и каталогизацией ссылок, присылаемых и публикуемых на форуме нашими читателями. Если вы являетесь правообладателем какого-либо представленного материала и не желаете чтобы ссылка на него находилась в нашем каталоге, свяжитесь с нами и мы незамедлительно удалим её. Файлы для обмена на трекере предоставлены пользователями сайта, и администрация не несёт ответственности за их содержание. Просьба не заливать файлы, защищенные авторскими правами, а также файлы нелегального содержания!