Начать новую тему Ответить на тему
Статистика раздачи
Размер: 138.06 МБ | Добавлен: 23 май 2019, 20:06 | Скачали: 0
Сидеров: 0  [0 байт/сек]    Личеров: 0  [0 байт/сек]
Пред. тема | След. тема 

Автор
Сообщение

СообщениеДобавлено: 23 май 2019, 20:06 

Ответить с цитатой 

2 Ruff feat. Shanaa / Only You (That I Need) (CDM)
Жанр: Eurorap / Pop / Electronic
Страна-производитель диска: Germany
Год издания: 1998
Издатель (лейбл): What's Up ?!
Номер по каталогу: 567 597-2
Страна: Germany
Аудиокодек: FLAC (*.flac)
Тип рипа: image+.cue
Битрейт аудио: lossless
Продолжительность: 00:20:36
Источник (релизер): CD (thanks to 720boss)
Наличие сканов в содержимом раздачи: да
Треклист:
1. Only You (That I Need) (Video Mix) (4:00)
2. Only You (That I Need) (Rufftime Remix) (3:57)
3. Only You (That I Need) (Video Instrumental) (4:00)
4. Only You (That I Need) (Rufftime Instrumental) (3:57)
5. Only You (That I Need) (Extended Mix) (4:42)
Код:
Exact Audio Copy V1.0 beta 3 from 29. August 2011
EAC extraction logfile from 16. February 2013, 18:51
2 Ruff feat. Shanaa / Only You (That I Need)
Used drive  : HL-DT-STDVDRAM GH24NS90   Adapter: 2  ID: 0
Read mode               : Secure
Utilize accurate stream : Yes
Defeat audio cache      : Yes
Make use of C2 pointers : No
Read offset correction                      : 6
Overread into Lead-In and Lead-Out          : No
Fill up missing offset samples with silence : Yes
Delete leading and trailing silent blocks   : No
Null samples used in CRC calculations       : Yes
Used interface                              : Native Win32 interface for Win NT & 2000
Used output format              : User Defined Encoder
Selected bitrate                : 1024 kBit/s
Quality                         : High
Add ID3 tag                     : No
Command line compressor         : C:\Program Files (x86)\Exact Audio Copy\Flac\flac.exe
Additional command line options : -8 -V -T "ARTIST=%artist%" -T "TITLE=%title%" -T "ALBUM=%albumtitle%" -T "DATE=%year%" -T "TRACKNUMBER=%tracknr%" -T "GENRE=%genre%" -T "PERFORMER=%albuminterpret%" -T "COMPOSER=%composer%" %haslyrics%--tag-from-file=LYRICS="%lyricsfile%"%haslyrics% -T "ALBUMARTIST=%albumartist%" -T "DISCNUMBER=%cdnumber%" -T "TOTALDISCS=%totalcds%" -T "TOTALTRACKS=%numtracks%" -T "COMMENT=%comment%" %source% -o %dest%
TOC of the extracted CD
     Track |   Start  |  Length  | Start sector | End sector
    ---------------------------------------------------------
        1  |  0:00.00 |  4:02.41 |         0    |    18190
        2  |  4:02.41 |  4:00.01 |     18191    |    36191
        3  |  8:02.42 |  4:02.13 |     36192    |    54354
        4  | 12:04.55 |  3:59.44 |     54355    |    72323
        5  | 16:04.24 |  4:42.11 |     72324    |    93484
Range status and errors
Selected range
     Filename E:\720 Rips\2 Ruff feat. Shanaa  - Only You (That I Need) (Single) (1998)\2 Ruff feat. Shanaa - Only You (That I Need).wav
     Peak level 99.0 %
     Extraction speed 1.4 X
     Range quality 100.0 %
     Test CRC 020DB326
     Copy CRC 020DB326
     Copy OK
No errors occurred
AccurateRip summary
Track  1  not present in database
Track  2  not present in database
Track  3  not present in database
Track  4  not present in database
Track  5  not present in database
None of the tracks are present in the AccurateRip database
End of status report
---- CUETools DB Plugin V2.1.3
[CTDB TOCID: EJMsttODh5yPr3mNc78fdmFE2bY-] disk not present in database, Submit result: EJMsttODh5yPr3mNc78fdmFE2bY- has been uploaded
==== Log checksum E475FCE30F09BD67CE162F217DC7A80F37BA6916B9B9286628AF07E057B42AFC ====
Код:
REM GENRE Rap
REM DATE 1998
REM DISCID 4004DE05
REM COMMENT "ExactAudioCopy v1.0b3"
CATALOG 0731456759722
PERFORMER "2 Ruff feat. Shanaa"
TITLE "Only You (That I Need)"
FILE "2 Ruff feat. Shanaa - Only You (That I Need).flac" WAVE
  TRACK 01 AUDIO
    TITLE "Only You (That I Need) (Video Mix)"
    PERFORMER "2 Ruff feat. Shanaa"
    ISRC DEF069807490
    INDEX 01 00:00:00
  TRACK 02 AUDIO
    TITLE "Only You (That I Need) (Rufftime Remix)"
    PERFORMER "2 Ruff feat. Shanaa"
    ISRC DEF069807500
    INDEX 00 04:00:56
    INDEX 01 04:02:41
  TRACK 03 AUDIO
    TITLE "Only You (That I Need) (Video Instrumental)"
    PERFORMER "2 Ruff feat. Shanaa"
    ISRC DEF069807510
    INDEX 00 08:00:22
    INDEX 01 08:02:42
  TRACK 04 AUDIO
    TITLE "Only You (That I Need) (Rufftime Instrumental)"
    PERFORMER "2 Ruff feat. Shanaa"
    ISRC DEF069807520
    INDEX 00 12:02:44
    INDEX 01 12:04:55
  TRACK 05 AUDIO
    TITLE "Only You (That I Need) (Extended Mix)"
    PERFORMER "2 Ruff feat. Shanaa"
    ISRC DEF069807530
    INDEX 00 16:02:05
    INDEX 01 16:04:24
Правила, инструкции, FAQ!!!
Торрент  Добавлен [23 май 2019, 20:06] Скачать торрент Магнет ссылка
Скачать торрент
[ Размер 11.61 КБ / Просмотров 3 ]

Статус
Проверен 
 
Размер  138.06 МБ
Приватный: Нет (DHT включён)
.torrent скачан  0
Как залить торрент? | Как скачать Torrent? | Ошибка в торренте? Качайте магнет  


     Отправить личное сообщение
   
Страница 1 из 1
Показать сообщения за:  Поле сортировки  
Начать новую тему Ответить на тему


Сейчас этот форум просматривают: нет зарегистрированных пользователей и гости: 0


Вы не можете начинать темы
Вы не можете отвечать на сообщения
Вы не можете редактировать свои сообщения
Вы не можете удалять свои сообщения
Вы не можете добавлять вложения

Перейти:  
Ресурс не предоставляет электронные версии произведений, а занимается лишь коллекционированием и каталогизацией ссылок, присылаемых и публикуемых на форуме нашими читателями. Если вы являетесь правообладателем какого-либо представленного материала и не желаете чтобы ссылка на него находилась в нашем каталоге, свяжитесь с нами и мы незамедлительно удалим её. Файлы для обмена на трекере предоставлены пользователями сайта, и администрация не несёт ответственности за их содержание. Просьба не заливать файлы, защищенные авторскими правами, а также файлы нелегального содержания!
cron