Начать новую тему Ответить на тему
Статистика раздачи
Размер: 179.84 МБ | Добавлен: 23 май 2019, 20:07 | Скачали: 0
Сидеров: 0  [0 байт/сек]    Личеров: 0  [0 байт/сек]
Пред. тема | След. тема 

Автор
Сообщение

СообщениеДобавлено: 23 май 2019, 20:07 

Ответить с цитатой 

Sitruunapippuri ‎– Naamioleikki (Maxi CD)
Жанр: Europop
Страна-производитель диска: Finland
Год издания: 1997
Издатель (лейбл): EMI ‎– 7243 8 67085 2 6
Номер по каталогу: Oy EMI Finland Ab ‎– 7243 8 67085 2 6
Аудиокодек: FLAC (*.flac)
Тип рипа: image+.cue
Битрейт аудио: lossless
Продолжительность: 19:38
Источник (релизер): Собственный рип
Наличие сканов в содержимом раздачи: да
Треклист:
1 Naamioleikki (Cool Radio Edit) 4:12
2 Naamioleikki (Original Radio Flava) 4:30
3 Naamioleikki (Rake's Club Mix) 5:17
4 Naamioleikki (Up'n Down'n Out Mix) 5:34
Код:
Exact Audio Copy V1.0 beta 2 from 29. April 2011
Отчёт EAC об извлечении, выполненном 20. октября 2013, 15:22
Sitruunapippuri / Naamioleikki
Дисковод: Optiarc DVD RW AD-7200S   Adapter: 2  ID: 0
Режим чтения                 : Достоверность
Использование точного потока : Да
Отключение кэша аудио        : Да
Использование указателей C2  : Нет
Коррекция смещения при чтении                     : 48
Способность читать области Lead-in и Lead-out     : Нет
Заполнение пропущенных сэмплов тишиной            : Да
Удаление блоков с тишиной в начале и конце        : Нет
При вычислениях CRC использовались нулевые сэмплы : Да
Интерфейс                                         : Встроенный Win32-интерфейс для Win NT/2000
Выходной формат          : Пользовательский кодировщик
Выбранный битрейт        : 1024 kBit/s
Качество                 : Высокий
Добавление ID3-тега      : Да
Утилита сжатия           : C:\Program Files\Exact Audio Copy\FLAC\FLAC.EXE
Дополнительные параметры : -8 -V -T "ARTIST=%artist%" -T "TITLE=%title%" -T "ALBUM=%albumtitle%" -T "DATE=%year%" -T "TRACKNUMBER=%tracknr%" -T "GENRE=%genre%" -T "COMMENT=%comment%" -T "BAND=%albuminterpret%" -T "COMPOSER=%composer%" %haslyrics%--tag-from-
TOC извлечённого CD
     Трек |   Старт  | Длительность | Начальный сектор | Конечный сектор
    ---------------------------------------------------------------------
       1  |  0:00.00 |    4:13.55   |           0      |      19029
       2  |  4:13.55 |    4:31.50   |       19030      |      39404
       3  |  8:45.30 |    5:18.45   |       39405      |      63299
       4  | 14:04.00 |    5:34.15   |       63300      |      88364
Характеристики диапазона извлечения и сообщения об ошибках
Выбранный диапазон
     Имя файла C:\Documents and Settings\vova\Рабочий стол\Sitruunapippuri - Naamioleikki.wav
     Пиковый уровень 98.8 %
     Скорость извлечения 3.1 X
     Качество диапазона 100.0 %
     CRC теста 3A4D0FC1
     CRC копии 3A4D0FC1
     Копирование... OK
Ошибок не произошло
AccurateRip: сводка
Трек  1  : извлечено точно (доверие 1)  [5C598672]  (AR v2)
Трек  2  : извлечено точно (доверие 1)  [212A7113]  (AR v2)
Трек  3  : извлечено точно (доверие 1)  [322C405D]  (AR v2)
Трек  4  : извлечено точно (доверие 1)  [BDC3988A]  (AR v2)
Все треки извлечены точно
Конец отчёта
==== Контрольная сумма отчёта 571C5EAB9000964B3204F5437C5900A312ED3D77BD8AA7CFE64546B9B3D5AD2D ====
Доп. информация: http://www.discogs.com/Sitruunapippuri-Naamioleikki/release/1784062
Правила, инструкции, FAQ!!!
Торрент  Добавлен [23 май 2019, 20:07] Скачать торрент Магнет ссылка
Скачать торрент
[ Размер 1.3 КБ / Просмотров 2 ]

Статус
Проверен 
 
Размер  179.84 МБ
Приватный: Нет (DHT включён)
.torrent скачан  0
Как залить торрент? | Как скачать Torrent? | Ошибка в торренте? Качайте магнет  


     Отправить личное сообщение
   
Страница 1 из 1
Показать сообщения за:  Поле сортировки  
Начать новую тему Ответить на тему


Сейчас этот форум просматривают: нет зарегистрированных пользователей и гости: 0


Вы не можете начинать темы
Вы не можете отвечать на сообщения
Вы не можете редактировать свои сообщения
Вы не можете удалять свои сообщения
Вы не можете добавлять вложения

Перейти:  
Ресурс не предоставляет электронные версии произведений, а занимается лишь коллекционированием и каталогизацией ссылок, присылаемых и публикуемых на форуме нашими читателями. Если вы являетесь правообладателем какого-либо представленного материала и не желаете чтобы ссылка на него находилась в нашем каталоге, свяжитесь с нами и мы незамедлительно удалим её. Файлы для обмена на трекере предоставлены пользователями сайта, и администрация не несёт ответственности за их содержание. Просьба не заливать файлы, защищенные авторскими правами, а также файлы нелегального содержания!
cron