Начать новую тему Ответить на тему
Статистика раздачи
Размер: 355.5 МБ | Добавлен: 23 май 2019, 20:04 | Скачали: 0
Сидеров: 0  [0 байт/сек]    Личеров: 0  [0 байт/сек]
Пред. тема | След. тема 

Автор
Сообщение

СообщениеДобавлено: 23 май 2019, 20:04 

Ответить с цитатой 

Jakaranda - Never Let You Go
Жанр: Pop, Europop
Лейбл: Sony Records (Sony Music Entertainment (Japan) Inc.)
Каталог: SRCS 8671
Страна/Сделано: Japan
Год издания: 1998
Тип рипа: Image+.Cue
Аудио кодек: FLAC [*.flac]
Метод сжатия аудио: lossless
Продолжительность: 40:29
Источник (релизёр): Рипы с собственных CD (RoxMan)
Наличие сканов: Да
Треклист:
01. Never Let You Go (3:09)
02. Just Like That (4:08)
03. Everynight, Everyday (3:27)
04. Substitute (3:42)
05. Imaginary Lover (3:36)
06. You're My Heart, You're My Soul (4:16)
07. Don't Make Me Wait (3:47)
08. Can't Stop My Heart From Loving You (3:39)
09. Rivers Of Babylon (3:28)
10. It's OK, It's Alright (3:39)
11. Lonely (Japan Only Bonus Track) (3:38)
Код:
Exact Audio Copy V1.0 beta 3 from 29. August 2011
EAC extraction logfile from 30. July 2013, 19:07
Jakaranda / Never Let You Go
Used drive  : ASUS    DRW-20B1ST   Adapter: 2  ID: 0
Read mode               : Secure
Utilize accurate stream : Yes
Defeat audio cache      : Yes
Make use of C2 pointers : No
Read offset correction                      : 6
Overread into Lead-In and Lead-Out          : No
Fill up missing offset samples with silence : Yes
Delete leading and trailing silent blocks   : No
Null samples used in CRC calculations       : Yes
Used interface                              : Native Win32 interface for Win NT & 2000
Used output format              : User Defined Encoder
Selected bitrate                : 1024 kBit/s
Quality                         : High
Add ID3 tag                     : No
Command line compressor         : C:\Program Files\Exact Audio Copy\Flac\flac.exe
Additional command line options : -V -8 -T "Date=%year%" -T "Genre=%genre%" -T "Comment=Rip made RoxMan, Enjoy!" %source%
TOC of the extracted CD
     Track |   Start  |  Length  | Start sector | End sector
    ---------------------------------------------------------
        1  |  0:00.00 |  3:08.45 |         0    |    14144
        2  |  3:08.45 |  4:08.30 |     14145    |    32774
        3  |  7:17.00 |  3:27.35 |     32775    |    48334
        4  | 10:44.35 |  3:41.70 |     48335    |    64979
        5  | 14:26.30 |  3:36.27 |     64980    |    81206
        6  | 18:02.57 |  4:15.50 |     81207    |   100381
        7  | 22:18.32 |  3:46.53 |    100382    |   117384
        8  | 26:05.10 |  3:38.55 |    117385    |   133789
        9  | 29:43.65 |  3:28.05 |    133790    |   149394
       10  | 33:11.70 |  3:39.05 |    149395    |   165824
       11  | 36:51.00 |  3:38.27 |    165825    |   182201
Range status and errors
Selected range
     Filename D:\Jakaranda - Never Let You Go.wav
     Peak level 100.0 %
     Extraction speed 8.0 X
     Range quality 100.0 %
     Test CRC 2AB291C7
     Copy CRC 2AB291C7
     Copy OK
No errors occurred
AccurateRip summary
Track  1  accurately ripped (confidence 1)  [D65FA0C3]  (AR v1)
Track  2  accurately ripped (confidence 1)  [25A15F35]  (AR v1)
Track  3  accurately ripped (confidence 1)  [9F967355]  (AR v1)
Track  4  accurately ripped (confidence 1)  [7878DEA7]  (AR v1)
Track  5  accurately ripped (confidence 1)  [E0DA510E]  (AR v1)
Track  6  accurately ripped (confidence 1)  [B537205D]  (AR v1)
Track  7  accurately ripped (confidence 1)  [20AA54FA]  (AR v1)
Track  8  accurately ripped (confidence 1)  [42917478]  (AR v1)
Track  9  accurately ripped (confidence 1)  [4D669888]  (AR v1)
Track 10  accurately ripped (confidence 1)  [48D24703]  (AR v1)
Track 11  accurately ripped (confidence 1)  [89AF22C5]  (AR v1)
All tracks accurately ripped
End of status report
==== Log checksum 8D34B429812EF2FDAAC285AE701890E289D5E10055BB70C68A7A29E77D7A3F75 ====


PS: раздача с 18:00 до 23:30 (время московское).
Поддерживая раздачу, вы даёте возможность скачать её другим !
Правила, инструкции, FAQ!!!
Торрент  Добавлен [23 май 2019, 20:04] Скачать торрент Магнет ссылка
Скачать торрент
[ Размер 15.16 КБ / Просмотров 4 ]

Статус
Проверен 
 
Размер  355.5 МБ
Приватный: Нет (DHT включён)
.torrent скачан  0
Как залить торрент? | Как скачать Torrent? | Ошибка в торренте? Качайте магнет  


     Отправить личное сообщение
   
Страница 1 из 1
Показать сообщения за:  Поле сортировки  
Начать новую тему Ответить на тему


Сейчас этот форум просматривают: нет зарегистрированных пользователей и гости: 0


Вы не можете начинать темы
Вы не можете отвечать на сообщения
Вы не можете редактировать свои сообщения
Вы не можете удалять свои сообщения
Вы не можете добавлять вложения

Перейти:  
Ресурс не предоставляет электронные версии произведений, а занимается лишь коллекционированием и каталогизацией ссылок, присылаемых и публикуемых на форуме нашими читателями. Если вы являетесь правообладателем какого-либо представленного материала и не желаете чтобы ссылка на него находилась в нашем каталоге, свяжитесь с нами и мы незамедлительно удалим её. Файлы для обмена на трекере предоставлены пользователями сайта, и администрация не несёт ответственности за их содержание. Просьба не заливать файлы, защищенные авторскими правами, а также файлы нелегального содержания!
cron