Начать новую тему Ответить на тему
Статистика раздачи
Размер: 75.11 МБ | Добавлен: 23 май 2019, 20:05 | Скачали: 0
Сидеров: 0  [0 байт/сек]    Личеров: 0  [0 байт/сек]
Пред. тема | След. тема 

Автор
Сообщение

СообщениеДобавлено: 23 май 2019, 20:05 

Ответить с цитатой 

Tony Cabana - In String Wil Ik Haar Zien
Жанр: Europop, Euro House, Parody
Страна-производитель диска: Netherlands
Год издания: 2005
Издатель (лейбл): Muziekland
Номер по каталогу: 8714866644-3
Страна: Belgium
Аудиокодек: FLAC (*.flac)
Тип рипа: tracks+.cue
Битрейт аудио: lossless
Продолжительность: 00:09:45
Источник (релизер): Собственный рип
Наличие сканов в содержимом раздачи: нет
Треклист:
01. In String Wil Ik Haar Zien (Radio Edit) (03:16)
02. In String Wil Ik Haar Zien (Tony's Bauer Sound Edit) (03:16)
03. In String Wil Ik Haar Zien (Copa Ambi Mix) (03:13)
Код:
Exact Audio Copy V1.0 beta 3 from 29. August 2011
Отчёт EAC об извлечении, выполненном 9. декабря 2012, 12:40
Tony Cabana / In String Wil Ik Haar Zien
Дисковод: ATAPI   DVD A  DH20A3H   Adapter: 1  ID: 1
Режим чтения                 : Достоверность
Использование точного потока : Да
Отключение кэша аудио        : Да
Использование указателей C2  : Нет
Коррекция смещения при чтении                     : 6
Способность читать области Lead-in и Lead-out     : Нет
Заполнение пропущенных сэмплов тишиной            : Да
Удаление блоков с тишиной в начале и конце        : Нет
При вычислениях CRC использовались нулевые сэмплы : Да
Интерфейс                                         : Встроенный Win32-интерфейс для Win NT/2000
Обработка зазоров                                 : Добавлено к предыдущему треку
Выходной формат          : Пользовательский кодировщик
Выбранный битрейт        : 1024 kBit/s
Качество                 : Высокий
Добавление ID3-тега      : Нет
Утилита сжатия           : C:\Program Files\Exact Audio Copy\Flac\flac.exe
Дополнительные параметры : -V -8 -T "Genre=%genre%" -T "Artist=%artist%" -T "Title=%title%" -T "Album=%albumtitle%" -T "Date=%year%" -T "Tracknumber=%tracknr%" -T "Comment=%comment%" %source%
TOC извлечённого CD
     Трек |   Старт  | Длительность | Начальный сектор | Конечный сектор
    ---------------------------------------------------------------------
       1  |  0:00.00 |    3:16.22   |           0      |      14721
       2  |  3:16.22 |    3:16.24   |       14722      |      29445
       3  |  6:32.46 |    3:13.07   |       29446      |      43927
Трек  1
     Имя файла C:\Documents and Settings\LP_Masta\Мои документы\Раздачи для торрентс.ру\Tony Cabana\Singles\2005 - In String Wil Ik Haar Zien NL CDM\01 - In String Wil Ik Haar Zien (Radio Edit).wav
     Длина предзазора  0:00:02.00
     Пиковый уровень 97.7 %
     Скорость извлечения 4.0 X
     Качество трека 100.0 %
     CRC теста 2DE0B70F
     CRC копии 2DE0B70F
     Трек не обнаружен в базе AccurateRip
     Копирование... OK
Трек  2
     Имя файла C:\Documents and Settings\LP_Masta\Мои документы\Раздачи для торрентс.ру\Tony Cabana\Singles\2005 - In String Wil Ik Haar Zien NL CDM\02 - In String Wil Ik Haar Zien (Tony's Bauer Sound Edit).wav
     Длина предзазора  0:00:02.00
     Пиковый уровень 97.7 %
     Скорость извлечения 4.4 X
     Качество трека 100.0 %
     CRC теста A75FC990
     CRC копии A75FC990
     Трек не обнаружен в базе AccurateRip
     Копирование... OK
Трек  3
     Имя файла C:\Documents and Settings\LP_Masta\Мои документы\Раздачи для торрентс.ру\Tony Cabana\Singles\2005 - In String Wil Ik Haar Zien NL CDM\03 - In String Wil Ik Haar Zien (Copa Ambi Mix).wav
     Длина предзазора  0:00:02.00
     Пиковый уровень 97.7 %
     Скорость извлечения 4.7 X
     Качество трека 100.0 %
     CRC теста A6B711CB
     CRC копии A6B711CB
     Трек не обнаружен в базе AccurateRip
     Копирование... OK
Ни одного трека нет в базе AccurateRip
Ошибок не произошло
Конец отчёта
---- CUETools DB Plugin V2.1.3
[CTDB TOCID: GtczRmBC3UpCuEzWGdfdkC6133g-] disk not present in database, Submit result: GtczRmBC3UpCuEzWGdfdkC6133g- has been uploaded
==== Контрольная сумма отчёта F57521ABA719137968C2CCA0FF9BEB70803B50EDA002F2319436A1E1E3E0993F ====
Код:
REM GENRE Pop
REM DATE 2005
REM DISCID 24024903
REM COMMENT "ExactAudioCopy v1.0b3"
PERFORMER "Tony Cabana"
TITLE "In String Wil Ik Haar Zien"
FILE "01 - In String Wil Ik Haar Zien (Radio Edit).wav" WAVE
  TRACK 01 AUDIO
    TITLE "In String Wil Ik Haar Zien (Radio Edit)"
    PERFORMER "Tony Cabana"
    ISRC CgaH40500165
    INDEX 01 00:00:00
  TRACK 02 AUDIO
    TITLE "In String Wil Ik Haar Zien (Tony's Bauer Sound Edit)"
    PERFORMER "Tony Cabana"
    ISRC CgaH40500166
    INDEX 00 03:14:22
FILE "02 - In String Wil Ik Haar Zien (Tony's Bauer Sound Edit).wav" WAVE
    INDEX 01 00:00:00
  TRACK 03 AUDIO
    TITLE "In String Wil Ik Haar Zien (Copa Ambi Mix)"
    PERFORMER "Tony Cabana"
    ISRC CgaH40500167
    INDEX 00 03:14:24
FILE "03 - In String Wil Ik Haar Zien (Copa Ambi Mix).wav" WAVE
    INDEX 01 00:00:00
Правила, инструкции, FAQ!!!
Торрент  Добавлен [23 май 2019, 20:05] Скачать торрент Магнет ссылка
Скачать торрент
[ Размер 12.9 КБ / Просмотров 6 ]

Статус
Проверен 
 
Размер  75.11 МБ
Приватный: Нет (DHT включён)
.torrent скачан  0
Как залить торрент? | Как скачать Torrent? | Ошибка в торренте? Качайте магнет  


     Отправить личное сообщение
   
Страница 1 из 1
Показать сообщения за:  Поле сортировки  
Начать новую тему Ответить на тему


Сейчас этот форум просматривают: нет зарегистрированных пользователей и гости: 0


Вы не можете начинать темы
Вы не можете отвечать на сообщения
Вы не можете редактировать свои сообщения
Вы не можете удалять свои сообщения
Вы не можете добавлять вложения

Перейти:  
Ресурс не предоставляет электронные версии произведений, а занимается лишь коллекционированием и каталогизацией ссылок, присылаемых и публикуемых на форуме нашими читателями. Если вы являетесь правообладателем какого-либо представленного материала и не желаете чтобы ссылка на него находилась в нашем каталоге, свяжитесь с нами и мы незамедлительно удалим её. Файлы для обмена на трекере предоставлены пользователями сайта, и администрация не несёт ответственности за их содержание. Просьба не заливать файлы, защищенные авторскими правами, а также файлы нелегального содержания!
cron