Начать новую тему Ответить на тему
Статистика раздачи
Размер: 316.14 МБ | Добавлен: 23 май 2019, 20:04 | Скачали: 0
Сидеров: 0  [0 байт/сек]    Личеров: 0  [0 байт/сек]
Пред. тема | След. тема 

Автор
Сообщение

СообщениеДобавлено: 23 май 2019, 20:04 

Ответить с цитатой 

Freedom – Hang On
Жанр: Europop, Euro House
Страна-производитель диска: Denmark
Год издания диска: 2001
Издатель (лейбл): Scoop Records
Номер по каталогу: SCOOP48128-2
Аудиокодек: FLAC (*.flac)
Тип рипа: image+.cue
Битрейт аудио: lossless
Продолжительность: 43:42
Источник (релизер): Audio CD
Наличие сканов в содержимом раздачи: нет
Треклист:
01. The Real Thing [0:03:16.42]
02. Hang On [0:03:42.53]
03. A Little Bit More [0:03:37.70]
04. Funny Funny [0:03:16.56]
05. If You Wanna Make Loving Last [0:03:59.80]
06. Fast Train [0:03:51.46]
07. Susanna [0:03:31.00]
08. One Way Ticket [0:03:09.97]
09. Closer To You [0:03:59.66]
10. Sometimes [0:03:23.02]
11. Take My Heart [0:03:56.64]
12. A Love So Strong [0:03:57.76]
Код:
Exact Audio Copy V0.99 prebeta 5 from 4. May 2009
EAC extraction logfile from 26. November 2011, 19:51
Freedom / Hang On
Used drive  : SONY    DVD RW DRX-S70U   Adapter: 2  ID: 0
Read mode               : Secure
Utilize accurate stream : Yes
Defeat audio cache      : Yes
Make use of C2 pointers : No
Read offset correction                      : 48
Overread into Lead-In and Lead-Out          : No
Fill up missing offset samples with silence : Yes
Delete leading and trailing silent blocks   : No
Null samples used in CRC calculations       : Yes
Used interface                              : Native Win32 interface for Win NT & 2000
Used output format : Internal WAV Routines
Sample format      : 44.100 Hz; 16 Bit; Stereo
TOC of the extracted CD
     Track |   Start  |  Length  | Start sector | End sector
    ---------------------------------------------------------
        1  |  0:00.00 |  3:16.32 |         0    |    14731
        2  |  3:16.32 |  3:42.40 |     14732    |    31421
        3  |  6:58.72 |  3:37.53 |     31422    |    47749
        4  | 10:36.50 |  3:16.42 |     47750    |    62491
        5  | 13:53.17 |  3:59.60 |     62492    |    80476
        6  | 17:53.02 |  3:51.35 |     80477    |    97836
        7  | 21:44.37 |  3:31.00 |     97837    |   113661
        8  | 25:15.37 |  3:09.73 |    113662    |   127909
        9  | 28:25.35 |  3:59.50 |    127910    |   145884
       10  | 32:25.10 |  3:23.02 |    145885    |   161111
       11  | 35:48.12 |  3:56.48 |    161112    |   178859
       12  | 39:44.60 |  3:57.57 |    178860    |   196691
Range status and errors
Selected range
     Filename C:\Users\Fancy\Desktop\Freedom - Hang On.wav
     Peak level 99.9 %
     Range quality 100.0 %
     Test CRC 44DF2B7A
     Copy CRC 44DF2B7A
     Copy OK
No errors occurred
AccurateRip summary
Track  1  cannot be verified as accurate (confidence 3)  [13C9DC27], AccurateRip returned [7C0690AD]
Track  2  cannot be verified as accurate (confidence 3)  [34503A8A], AccurateRip returned [1541DC89]
Track  3  cannot be verified as accurate (confidence 3)  [E9844693], AccurateRip returned [70AEBBD1]
Track  4  cannot be verified as accurate (confidence 3)  [70FD9C5C], AccurateRip returned [09032D1D]
Track  5  cannot be verified as accurate (confidence 3)  [ECB6E6AC], AccurateRip returned [756DA454]
Track  6  cannot be verified as accurate (confidence 3)  [9321FE70], AccurateRip returned [50E1C0EC]
Track  7  cannot be verified as accurate (confidence 3)  [9363C0ED], AccurateRip returned [8138E313]
Track  8  cannot be verified as accurate (confidence 3)  [A5A3FD6A], AccurateRip returned [FB1E9120]
Track  9  cannot be verified as accurate (confidence 3)  [C09CCA23], AccurateRip returned [6A82C442]
Track 10  cannot be verified as accurate (confidence 3)  [6FF3527A], AccurateRip returned [92CA3881]
Track 11  cannot be verified as accurate (confidence 3)  [6B635D40], AccurateRip returned [4CCD923B]
Track 12  cannot be verified as accurate (confidence 3)  [D95BD37E], AccurateRip returned [0DC8FF8F]
No tracks could be verified as accurate
You may have a different pressing from the one(s) in the database
End of status report
Код:
REM GENRE Pop
REM DATE 2001
REM DISCID 9F0A3E0C
REM COMMENT "ExactAudioCopy v0.99pb5"
PERFORMER "Freedom"
TITLE "Hang On"
FILE "Freedom - Hang On.flac" WAVE
  TRACK 01 AUDIO
    TITLE "The Real Thing"
    PERFORMER "Freedom"
    INDEX 01 00:00:00
  TRACK 02 AUDIO
    TITLE "Hang On"
    PERFORMER "Freedom"
    INDEX 01 03:16:32
  TRACK 03 AUDIO
    TITLE "A Little Bit More"
    PERFORMER "Freedom"
    INDEX 01 06:58:72
  TRACK 04 AUDIO
    TITLE "Funny Funny"
    PERFORMER "Freedom"
    INDEX 01 10:36:50
  TRACK 05 AUDIO
    TITLE "If You Wanna Make Loving Last"
    PERFORMER "Freedom"
    INDEX 01 13:53:17
  TRACK 06 AUDIO
    TITLE "Fast Train"
    PERFORMER "Freedom"
    INDEX 01 17:53:02
  TRACK 07 AUDIO
    TITLE "Susanna"
    PERFORMER "Freedom"
    INDEX 01 21:44:37
  TRACK 08 AUDIO
    TITLE "One Way Ticket"
    PERFORMER "Freedom"
    INDEX 01 25:15:37
  TRACK 09 AUDIO
    TITLE "Closer To You"
    PERFORMER "Freedom"
    INDEX 01 28:25:35
  TRACK 10 AUDIO
    TITLE "Sometimes"
    PERFORMER "Freedom"
    INDEX 01 32:25:10
  TRACK 11 AUDIO
    TITLE "Take My Heart"
    PERFORMER "Freedom"
    INDEX 01 35:48:12
  TRACK 12 AUDIO
    TITLE "A Love So Strong"
    PERFORMER "Freedom"
    INDEX 01 39:44:60
Код:
AUDIOCHECKER v2.0 beta (build 457) - by Dester - opdester@freemail.hu
~~~~~~~~~~~~~~~~~~~~~~~~~~~~~~~~~~
Started at: Saturday, 26. 11. 2011. - 19:52.46
12 files found
01 -===- track 1 in drive HL-DT-STDVDRAM GSA-T50N
  Track ripped successfully
  Conclusion: this track is CDDA with probability 99%
  Tempfile successfully deleted.
02 -===- track 2 in drive HL-DT-STDVDRAM GSA-T50N
  Track ripped successfully
  Conclusion: this track is CDDA with probability 100%
  Tempfile successfully deleted.
03 -===- track 3 in drive HL-DT-STDVDRAM GSA-T50N
  Track ripped successfully
  Conclusion: this track is CDDA with probability 100%
  Tempfile successfully deleted.
04 -===- track 4 in drive HL-DT-STDVDRAM GSA-T50N
  Track ripped successfully
  Conclusion: this track is CDDA with probability 100%
  Tempfile successfully deleted.
05 -===- track 5 in drive HL-DT-STDVDRAM GSA-T50N
  Track ripped successfully
  Conclusion: this track is CDDA with probability 100%
  Tempfile successfully deleted.
06 -===- track 6 in drive HL-DT-STDVDRAM GSA-T50N
  Track ripped successfully
  Conclusion: this track is CDDA with probability 100%
  Tempfile successfully deleted.
07 -===- track 7 in drive HL-DT-STDVDRAM GSA-T50N
  Track ripped successfully
  Conclusion: this track is CDDA with probability 100%
  Tempfile successfully deleted.
08 -===- track 8 in drive HL-DT-STDVDRAM GSA-T50N
  Track ripped successfully
  Conclusion: this track is CDDA with probability 100%
  Tempfile successfully deleted.
09 -===- track 9 in drive HL-DT-STDVDRAM GSA-T50N
  Track ripped successfully
  Conclusion: this track is CDDA with probability 100%
  Tempfile successfully deleted.
10 -===- track 10 in drive HL-DT-STDVDRAM GSA-T50N
  Track ripped successfully
  Conclusion: this track is CDDA with probability 100%
  Tempfile successfully deleted.
11 -===- track 11 in drive HL-DT-STDVDRAM GSA-T50N
  Track ripped successfully
  Conclusion: this track is CDDA with probability 99%
  Tempfile successfully deleted.
12 -===- track 12 in drive HL-DT-STDVDRAM GSA-T50N
  Track ripped successfully
  Conclusion: this track is CDDA with probability 100%
  Tempfile successfully deleted.
Finished at: Saturday, 26. 11. 2011. - 20:09.14 (operation time: 0:16.28)
Правила, инструкции, FAQ!!!
Торрент  Добавлен [23 май 2019, 20:04] Скачать торрент Магнет ссылка
Скачать торрент
[ Размер 13.02 КБ / Просмотров 4 ]

Статус
Проверен 
 
Размер  316.14 МБ
Приватный: Нет (DHT включён)
.torrent скачан  0
Как залить торрент? | Как скачать Torrent? | Ошибка в торренте? Качайте магнет  


     Отправить личное сообщение
   
Страница 1 из 1
Показать сообщения за:  Поле сортировки  
Начать новую тему Ответить на тему


Сейчас этот форум просматривают: нет зарегистрированных пользователей и гости: 0


Вы не можете начинать темы
Вы не можете отвечать на сообщения
Вы не можете редактировать свои сообщения
Вы не можете удалять свои сообщения
Вы не можете добавлять вложения

Перейти:  
Ресурс не предоставляет электронные версии произведений, а занимается лишь коллекционированием и каталогизацией ссылок, присылаемых и публикуемых на форуме нашими читателями. Если вы являетесь правообладателем какого-либо представленного материала и не желаете чтобы ссылка на него находилась в нашем каталоге, свяжитесь с нами и мы незамедлительно удалим её. Файлы для обмена на трекере предоставлены пользователями сайта, и администрация не несёт ответственности за их содержание. Просьба не заливать файлы, защищенные авторскими правами, а также файлы нелегального содержания!
cron