Начать новую тему Ответить на тему
Статистика раздачи
Размер: 175.51 МБ | Добавлен: 23 май 2019, 20:07 | Скачали: 0
Сидеров: 0  [0 байт/сек]    Личеров: 0  [0 байт/сек]
Пред. тема | След. тема 

Автор
Сообщение

СообщениеДобавлено: 23 май 2019, 20:07 

Ответить с цитатой 

J.K. - You & I (Remix '95) (German Release)
Жанр: Eurodance
Носитель: CDM
Страна-производитель диска (релиза): Germany
Год издания: 1995
Издатель (лейбл): ZYX Music ‎
Номер по каталогу: ZYX 7524R-8
Страна исполнителя (группы): Italy
Аудиокодек: FLAC (*.flac)
Тип рипа: image+.cue
Битрейт аудио: lossless
Продолжительность: 00:19:44
Источник (релизер): собственный рип
Наличие сканов в содержимом раздачи: да
Треклист:
1 You & I (Radio Cut) 3:50
2 You & I (Club Remix) 5:03
3 You & I (U.G.K. Beat Mix) 5:50
4 You & I (Classic Remix) 4:59
Код:
Exact Audio Copy V1.0 beta 3 from 29. August 2011
Отчёт EAC об извлечении, выполненном 19. ноября 2016, 22:09
J.K. / You & I (Remix '95)
Дисковод: SlimtypeDVD A DS8A8SH   Adapter: 0  ID: 1
Режим чтения                 : Достоверность
Использование точного потока : Да
Отключение кэша аудио        : Да
Использование указателей C2  : Нет
Коррекция смещения при чтении                     : 6
Способность читать области Lead-in и Lead-out     : Нет
Заполнение пропущенных сэмплов тишиной            : Да
Удаление блоков с тишиной в начале и конце        : Нет
При вычислениях CRC использовались нулевые сэмплы : Да
Интерфейс                                         : Встроенный Win32-интерфейс для Win NT/2000
Выходной формат          : Пользовательский кодировщик
Выбранный битрейт        : 896 kBit/s
Качество                 : Высокий
Добавление ID3-тега      : Нет
Утилита сжатия           : C:\Program Files (x86)\Exact Audio Copy\Flac\flac.exe
Дополнительные параметры : -V -8 -T "Date=%year%" -T "Genre=%genre%" %source%
TOC извлечённого CD
     Трек |   Старт  | Длительность | Начальный сектор | Конечный сектор
    ---------------------------------------------------------------------
       1  |  0:00.00 |    3:50.33   |           0      |      17282
       2  |  3:50.33 |    5:03.20   |       17283      |      40027
       3  |  8:53.53 |    5:50.52   |       40028      |      66329
       4  | 14:44.30 |    4:59.60   |       66330      |      88814
Характеристики диапазона извлечения и сообщения об ошибках
Выбранный диапазон
     Имя файла C:\Lossless\J.K. - You & I (Remix '95) - (CDM-1995-Flac)\J.K. - You & I (Remix '95).wav
     Пиковый уровень 100.0 %
     Скорость извлечения 2.3 X
     Качество диапазона 100.0 %
     CRC теста 5E980241
     CRC копии 5E980241
     Копирование... OK
Ошибок не произошло
AccurateRip: сводка
Трек  1  : извлечено точно (доверие 3)  [C3AAF2D0]  (AR v1)
Трек  2  : извлечено точно (доверие 3)  [7B3B1BC7]  (AR v1)
Трек  3  : извлечено точно (доверие 3)  [ACEEB1ED]  (AR v1)
Трек  4  : извлечено точно (доверие 3)  [EAA038E8]  (AR v1)
Все треки извлечены точно
Конец отчёта
==== Контрольная сумма отчёта 4922330AB7F3E9B5221D4EBE9E13E3319A7D28489274CA50B19A869011B22C8F ====

Доп. информация: Рип мой,с оригинального диска из моей коллекции.Сканы обложки и диска внутри торрeнта (600 dpi,PNG).Приятного прослушивания!
Правила, инструкции, FAQ!!!
Торрент  Добавлен [23 май 2019, 20:07] Скачать торрент Магнет ссылка
Скачать торрент
[ Размер 14.49 КБ / Просмотров 2 ]

Статус
Проверен 
 
Размер  175.51 МБ
Приватный: Нет (DHT включён)
.torrent скачан  0
Как залить торрент? | Как скачать Torrent? | Ошибка в торренте? Качайте магнет  


     Отправить личное сообщение
   
Страница 1 из 1
Показать сообщения за:  Поле сортировки  
Начать новую тему Ответить на тему


Сейчас этот форум просматривают: нет зарегистрированных пользователей и гости: 0


Вы не можете начинать темы
Вы не можете отвечать на сообщения
Вы не можете редактировать свои сообщения
Вы не можете удалять свои сообщения
Вы не можете добавлять вложения

Перейти:  
Ресурс не предоставляет электронные версии произведений, а занимается лишь коллекционированием и каталогизацией ссылок, присылаемых и публикуемых на форуме нашими читателями. Если вы являетесь правообладателем какого-либо представленного материала и не желаете чтобы ссылка на него находилась в нашем каталоге, свяжитесь с нами и мы незамедлительно удалим её. Файлы для обмена на трекере предоставлены пользователями сайта, и администрация не несёт ответственности за их содержание. Просьба не заливать файлы, защищенные авторскими правами, а также файлы нелегального содержания!
cron