Начать новую тему Ответить на тему
Статистика раздачи
Размер: 573.41 МБ | Добавлен: 23 май 2019, 20:04 | Скачали: 0
Сидеров: 0  [0 байт/сек]    Личеров: 0  [0 байт/сек]
Пред. тема | След. тема 

Автор
Сообщение

СообщениеДобавлено: 23 май 2019, 20:04 

Ответить с цитатой 

XXXL 6 Европейский
Жанр: Eurodance
Носитель: CD
Год издания: 2002
Издатель : Монолит
Номер по каталогу: мт 235 - 1
Аудиокодек: FLAC (*.flac)
Тип рипа: tracks+.cue
Битрейт аудио: lossless
Продолжительность: 01:03:34
Источник : мой
Наличие сканов : да
Треклист:
01 - Samanta Mumba - Gotta Tell You
02 - Gerri Halliwell - Scream If You Wana Go Faster
03 - E-Type Featuring Na-Na - Life
04 - Mojio - Peace In Mind
05 - Captain Jack - Lko Lko
06 - Britney Spears - I Ama Slave 4 You
07 - Playmaker - Black Pony
08 - Five - Let's Dance
09 - Safri Duo - Played-A-Live (The Bongo Song)
10 - Mario Fargetta - I Will Rise Again
11 - Depeche Mode - Dream On
12 - No Angels - Rivers Of Joy
13 - Sisqo - Sisqo Featuring Dru Hill Without You
14 - BBMAK - Back Here
15 - Stingers - Just Like You Want
16 - Dido - Hunter
17 - Space Jump - I Found The Reason
18 - Afroman - Crazy Rap
Код:
Exact Audio Copy V1.0 beta 3 from 29. August 2011
EAC extraction logfile from 7. March 2015, 20:57
Various / XXXL 6 European
Used drive  : ATAPI   iHAS124   D   Adapter: 0  ID: 0
Read mode               : Secure
Utilize accurate stream : Yes
Defeat audio cache      : Yes
Make use of C2 pointers : No
Read offset correction                      : 6
Overread into Lead-In and Lead-Out          : No
Fill up missing offset samples with silence : Yes
Delete leading and trailing silent blocks   : No
Null samples used in CRC calculations       : Yes
Used interface                              : Native Win32 interface for Win NT & 2000
Gap handling                                : Appended to previous track
Used output format              : User Defined Encoder
Selected bitrate                : 320 kBit/s
Quality                         : High
Add ID3 tag                     : No
Command line compressor         : C:\Program Files (x86)\Exact Audio Copy\Flac\flac.exe
Additional command line options : -8 -V -T "ARTIST=%artist%" -T "TITLE=%title%" -T "ALBUM=%albumtitle%" -T "DATE=%year%" -T "TRACKNUMBER=%tracknr%" -T "TOTALTRACKS=%numtracks%" -T "GENRE=%genre%" -T "ALBUMARTIST=%albumartist%" -T "ALBUM ARTIST=%albumartist%" -T "COMMENT=EAC Secure Mode, Test & Copy, AccurateRip, FLAC -8" %source%
TOC of the extracted CD
     Track |   Start  |  Length  | Start sector | End sector
    ---------------------------------------------------------
        1  |  0:00.00 |  3:18.28 |         0    |    14877
        2  |  3:18.28 |  3:23.38 |     14878    |    30140
        3  |  6:41.66 |  3:39.41 |     30141    |    46606
        4  | 10:21.32 |  3:13.49 |     46607    |    61130
        5  | 13:35.06 |  3:11.04 |     61131    |    75459
        6  | 16:46.10 |  3:23.13 |     75460    |    90697
        7  | 20:09.23 |  3:11.17 |     90698    |   105039
        8  | 23:20.40 |  3:34.00 |    105040    |   121089
        9  | 26:54.40 |  6:38.06 |    121090    |   150945
       10  | 33:32.46 |  3:46.50 |    150946    |   167945
       11  | 37:19.21 |  4:15.47 |    167946    |   187117
       12  | 41:34.68 |  3:25.26 |    187118    |   202518
       13  | 45:00.19 |  2:55.24 |    202519    |   215667
       14  | 47:55.43 |  3:26.06 |    215668    |   231123
       15  | 51:21.49 |  5:16.59 |    231124    |   254882
       16  | 56:38.33 |  3:52.62 |    254883    |   272344
       17  | 60:31.20 |  3:02.60 |    272345    |   286054
       18  | 63:34.05 |  5:27.56 |    286055    |   310635
Track  1
     Filename E:\Музыка\Pop\Various - XXXL 6 European [2002]\01 - Samanta Mumba - Gotta Tell You.wav
     Pre-gap length  0:00:02.00
     Peak level 100.0 %
     Extraction speed 5.0 X
     Track quality 100.0 %
     Test CRC A15073B9
     Copy CRC A15073B9
     Track not present in AccurateRip database
     Copy OK
Track  2
     Filename E:\Музыка\Pop\Various - XXXL 6 European [2002]\02 - Gerri Halliwell - Scream If You Wana Go Faster.wav
     Peak level 99.5 %
     Extraction speed 4.5 X
     Track quality 99.9 %
     Test CRC 85AF198A
     Copy CRC 85AF198A
     Track not present in AccurateRip database
     Copy OK
Track  3
     Filename E:\Музыка\Pop\Various - XXXL 6 European [2002]\03 - E-Type Featuring Na-Na - Life.wav
     Peak level 92.5 %
     Extraction speed 6.0 X
     Track quality 100.0 %
     Test CRC CE958265
     Copy CRC CE958265
     Track not present in AccurateRip database
     Copy OK
Track  4
     Filename E:\Музыка\Pop\Various - XXXL 6 European [2002]\04 - Mojio - Peace In Mind.wav
     Peak level 98.8 %
     Extraction speed 6.2 X
     Track quality 100.0 %
     Test CRC A23B8BC7
     Copy CRC A23B8BC7
     Track not present in AccurateRip database
     Copy OK
Track  5
     Filename E:\Музыка\Pop\Various - XXXL 6 European [2002]\05 - Captain Jack - Lko Lko.wav
     Peak level 96.6 %
     Extraction speed 6.6 X
     Track quality 100.0 %
     Test CRC 6D86C1E9
     Copy CRC 6D86C1E9
     Track not present in AccurateRip database
     Copy OK
Track  6
     Filename E:\Музыка\Pop\Various - XXXL 6 European [2002]\06 - Britney Spears - I Ama Slave 4 You.wav
     Peak level 100.0 %
     Extraction speed 5.7 X
     Track quality 99.9 %
     Test CRC 0EDC447C
     Copy CRC 0EDC447C
     Track not present in AccurateRip database
     Copy OK
Track  7
     Filename E:\Музыка\Pop\Various - XXXL 6 European [2002]\07 - Playmaker - Black Pony.wav
     Peak level 98.8 %
     Extraction speed 5.8 X
     Track quality 99.9 %
     Test CRC 3EC5635D
     Copy CRC 3EC5635D
     Track not present in AccurateRip database
     Copy OK
Track  8
     Filename E:\Музыка\Pop\Various - XXXL 6 European [2002]\08 - Five - Let's Dance.wav
     Peak level 99.2 %
     Extraction speed 7.6 X
     Track quality 100.0 %
     Test CRC 87E60030
     Copy CRC 87E60030
     Track not present in AccurateRip database
     Copy OK
Track  9
     Filename E:\Музыка\Pop\Various - XXXL 6 European [2002]\09 - Fafri Duo - Played-A-Live (The Bongo Song).wav
     Peak level 91.5 %
     Extraction speed 7.7 X
     Track quality 99.9 %
     Test CRC 34EF0B6F
     Copy CRC 34EF0B6F
     Track not present in AccurateRip database
     Copy OK
Track 10
     Filename E:\Музыка\Pop\Various - XXXL 6 European [2002]\10 - Mario Fargetta - I Will Rise Again.wav
     Peak level 98.8 %
     Extraction speed 8.6 X
     Track quality 100.0 %
     Test CRC 52DE287C
     Copy CRC 52DE287C
     Track not present in AccurateRip database
     Copy OK
Track 11
     Filename E:\Музыка\Pop\Various - XXXL 6 European [2002]\11 - Depeche Mode - Dream On.wav
     Peak level 98.5 %
     Extraction speed 7.6 X
     Track quality 99.9 %
     Test CRC 7F89E338
     Copy CRC 7F89E338
     Track not present in AccurateRip database
     Copy OK
Track 12
     Filename E:\Музыка\Pop\Various - XXXL 6 European [2002]\12 - No Angels - Rivers Of Joy.wav
     Peak level 98.2 %
     Extraction speed 9.1 X
     Track quality 100.0 %
     Test CRC 22904593
     Copy CRC 22904593
     Track not present in AccurateRip database
     Copy OK
Track 13
     Filename E:\Музыка\Pop\Various - XXXL 6 European [2002]\13 - Sisqo - Sisqo Featuring Dru Hill Without You.wav
     Peak level 98.8 %
     Extraction speed 9.0 X
     Track quality 100.0 %
     Test CRC 50649D67
     Copy CRC 50649D67
     Track not present in AccurateRip database
     Copy OK
Track 14
     Filename E:\Музыка\Pop\Various - XXXL 6 European [2002]\14 - BBMAK - Back Here.wav
     Peak level 77.4 %
     Extraction speed 9.6 X
     Track quality 100.0 %
     Test CRC 7714E720
     Copy CRC 7714E720
     Track not present in AccurateRip database
     Copy OK
Track 15
     Filename E:\Музыка\Pop\Various - XXXL 6 European [2002]\15 - Stingers - Just Like You Want.wav
     Peak level 87.7 %
     Extraction speed 10.4 X
     Track quality 100.0 %
     Test CRC CAC095CD
     Copy CRC CAC095CD
     Track not present in AccurateRip database
     Copy OK
Track 16
     Filename E:\Музыка\Pop\Various - XXXL 6 European [2002]\16 - Dido - Hunter.wav
     Peak level 97.7 %
     Extraction speed 10.2 X
     Track quality 100.0 %
     Test CRC D6DD14D7
     Copy CRC D6DD14D7
     Track not present in AccurateRip database
     Copy OK
Track 17
     Filename E:\Музыка\Pop\Various - XXXL 6 European [2002]\17 - Space Jump - I Found The Reason.wav
     Peak level 100.0 %
     Extraction speed 10.2 X
     Track quality 100.0 %
     Test CRC C495C5C9
     Copy CRC C495C5C9
     Track not present in AccurateRip database
     Copy OK
Track 18
     Filename E:\Музыка\Pop\Various - XXXL 6 European [2002]\18 - Afroman - Crazy Rap.wav
     Peak level 98.8 %
     Extraction speed 11.1 X
     Track quality 100.0 %
     Test CRC 02F49A5A
     Copy CRC 02F49A5A
     Track not present in AccurateRip database
     Copy OK
None of the tracks are present in the AccurateRip database
No errors occurred
End of status report
==== Log checksum 3E0A69F8808FA6088199DF81AF1CF7A4F1B9D7DA99D22786C2DB540C7DBE691C ====
Код:
REM GENRE Dance
REM DATE 2002
REM DISCID C7102D12
REM COMMENT "ExactAudioCopy v1.0b3"
PERFORMER "Various"
TITLE "XXXL 6 European"
FILE "01 - Samanta Mumba - Gotta Tell You.wav" WAVE
  TRACK 01 AUDIO
    TITLE "Gotta Tell You"
    PERFORMER "Samanta Mumba"
    INDEX 01 00:00:00
FILE "02 - Gerri Halliwell - Scream If You Wana Go Faster.wav" WAVE
  TRACK 02 AUDIO
    TITLE "Scream If You Wana Go Faster"
    PERFORMER "Gerri Halliwell"
    INDEX 01 00:00:00
FILE "03 - E-Type Featuring Na-Na - Life.wav" WAVE
  TRACK 03 AUDIO
    TITLE "Life"
    PERFORMER "E-Type Featuring Na-Na"
    INDEX 01 00:00:00
FILE "04 - Mojio - Peace In Mind.wav" WAVE
  TRACK 04 AUDIO
    TITLE "Peace In Mind"
    PERFORMER "Mojio"
    INDEX 01 00:00:00
FILE "05 - Captain Jack - Lko Lko.wav" WAVE
  TRACK 05 AUDIO
    TITLE "Lko Lko"
    PERFORMER "Captain Jack"
    INDEX 01 00:00:00
FILE "06 - Britney Spears - I Ama Slave 4 You.wav" WAVE
  TRACK 06 AUDIO
    TITLE "I Ama Slave 4 You"
    PERFORMER "Britney Spears"
    INDEX 01 00:00:00
FILE "07 - Playmaker - Black Pony.wav" WAVE
  TRACK 07 AUDIO
    TITLE "Black Pony"
    PERFORMER "Playmaker"
    INDEX 01 00:00:00
FILE "08 - Five - Let's Dance.wav" WAVE
  TRACK 08 AUDIO
    TITLE "Let's Dance"
    PERFORMER "Five"
    INDEX 01 00:00:00
FILE "09 - Fafri Duo - Played-A-Live (The Bongo Song).wav" WAVE
  TRACK 09 AUDIO
    TITLE "Played-A-Live (The Bongo Song)"
    PERFORMER "Fafri Duo"
    INDEX 01 00:00:00
FILE "10 - Mario Fargetta - I Will Rise Again.wav" WAVE
  TRACK 10 AUDIO
    TITLE "I Will Rise Again"
    PERFORMER "Mario Fargetta"
    INDEX 01 00:00:00
FILE "11 - Depeche Mode - Dream On.wav" WAVE
  TRACK 11 AUDIO
    TITLE "Dream On"
    PERFORMER "Depeche Mode"
    INDEX 01 00:00:00
FILE "12 - No Angels - Rivers Of Joy.wav" WAVE
  TRACK 12 AUDIO
    TITLE "Rivers Of Joy"
    PERFORMER "No Angels"
    INDEX 01 00:00:00
FILE "13 - Sisqo - Sisqo Featuring Dru Hill Without You.wav" WAVE
  TRACK 13 AUDIO
    TITLE "Sisqo Featuring Dru Hill Without You"
    PERFORMER "Sisqo"
    INDEX 01 00:00:00
FILE "14 - BBMAK - Back Here.wav" WAVE
  TRACK 14 AUDIO
    TITLE "Back Here"
    PERFORMER "BBMAK"
    INDEX 01 00:00:00
FILE "15 - Stingers - Just Like You Want.wav" WAVE
  TRACK 15 AUDIO
    TITLE "Just Like You Want"
    PERFORMER "Stingers"
    INDEX 01 00:00:00
FILE "16 - Dido - Hunter.wav" WAVE
  TRACK 16 AUDIO
    TITLE "Hunter"
    PERFORMER "Dido"
    INDEX 01 00:00:00
FILE "17 - Space Jump - I Found The Reason.wav" WAVE
  TRACK 17 AUDIO
    TITLE "I Found The Reason"
    PERFORMER "Space Jump"
    INDEX 01 00:00:00
FILE "18 - Afroman - Crazy Rap.wav" WAVE
  TRACK 18 AUDIO
    TITLE "Crazy Rap"
    PERFORMER "Afroman"
    INDEX 01 00:00:00
Правила, инструкции, FAQ!!!
Торрент  Добавлен [23 май 2019, 20:04] Скачать торрент Магнет ссылка
Скачать торрент
[ Размер 13.33 КБ / Просмотров 3 ]

Статус
Проверен 
 
Размер  573.41 МБ
Приватный: Нет (DHT включён)
.torrent скачан  0
Как залить торрент? | Как скачать Torrent? | Ошибка в торренте? Качайте магнет  


     Отправить личное сообщение
   
Страница 1 из 1
Показать сообщения за:  Поле сортировки  
Начать новую тему Ответить на тему


Сейчас этот форум просматривают: нет зарегистрированных пользователей и гости: 0


Вы не можете начинать темы
Вы не можете отвечать на сообщения
Вы не можете редактировать свои сообщения
Вы не можете удалять свои сообщения
Вы не можете добавлять вложения

Перейти:  
Ресурс не предоставляет электронные версии произведений, а занимается лишь коллекционированием и каталогизацией ссылок, присылаемых и публикуемых на форуме нашими читателями. Если вы являетесь правообладателем какого-либо представленного материала и не желаете чтобы ссылка на него находилась в нашем каталоге, свяжитесь с нами и мы незамедлительно удалим её. Файлы для обмена на трекере предоставлены пользователями сайта, и администрация не несёт ответственности за их содержание. Просьба не заливать файлы, защищенные авторскими правами, а также файлы нелегального содержания!
cron