Начать новую тему Ответить на тему
Статистика раздачи
Размер: 483.65 МБ | Добавлен: 23 май 2019, 20:04 | Скачали: 0
Сидеров: 0  [0 байт/сек]    Личеров: 0  [0 байт/сек]
Пред. тема | След. тема 

Автор
Сообщение

СообщениеДобавлено: 23 май 2019, 20:04 

Ответить с цитатой 

Uniq / Amore
Жанр: Eurodance
Носитель: CD
Страна-производитель диска: Japan
Год издания: 1999
Издатель (лейбл): Scandinavian Records / Victor Entertainment Inc.
Номер по каталогу: VICP-60604
Страна: Finland
Аудиокодек: APE (*.ape)
Тип рипа: tracks+.cue
Битрейт аудио: lossless
Продолжительность: 00:54:19
Источник (релизер): My Rip (CD)
Наличие сканов в содержимом раздачи: 600dpi PNG
Треклист:
01. Oh Baby Baby [03:26]
02. Horizon [03:21]
03. I Don't Know [03:34]
04. Remember [03:16]
05. Someday [03:35]
06. Amore [03:44]
07. Prince Of My Dreams [03:04]
08. A Better Tomorrow [04:53]
09. Eternal Paradise [03:27]
10. Dreaming [03:12]
11. Silver Rain [04:11]
12. Gravity [05:01]
13. Remember (Extended Version) [04:19]
14. Amore (Extended Remix) [05:16]
Код:
Exact Audio Copy V1.0 beta 3 from 29. August 2011
EAC extraction logfile from 16. December 2013, 17:52
Uniq / Amore
Used drive  : ASUS    DRW-2014L1T   Adapter: 2  ID: 1
Read mode               : Secure
Utilize accurate stream : Yes
Defeat audio cache      : Yes
Make use of C2 pointers : No
Read offset correction                      : 6
Overread into Lead-In and Lead-Out          : No
Fill up missing offset samples with silence : Yes
Delete leading and trailing silent blocks   : No
Null samples used in CRC calculations       : Yes
Used interface                              : Native Win32 interface for Win NT & 2000
Gap handling                                : Appended to previous track
Used output format : Internal WAV Routines
Sample format      : 44.100 Hz; 16 Bit; Stereo
TOC of the extracted CD
     Track |   Start  |  Length  | Start sector | End sector
    ---------------------------------------------------------
        1  |  0:00.37 |  3:26.58 |        37    |    15544
        2  |  3:27.20 |  3:21.37 |     15545    |    30656
        3  |  6:48.57 |  3:34.50 |     30657    |    46756
        4  | 10:23.32 |  3:16.08 |     46757    |    61464
        5  | 13:39.40 |  3:35.45 |     61465    |    77634
        6  | 17:15.10 |  3:44.55 |     77635    |    94489
        7  | 20:59.65 |  3:04.32 |     94490    |   108321
        8  | 24:04.22 |  4:53.70 |    108322    |   130366
        9  | 28:58.17 |  3:27.28 |    130367    |   145919
       10  | 32:25.45 |  3:12.22 |    145920    |   160341
       11  | 35:37.67 |  4:11.63 |    160342    |   179229
       12  | 39:49.55 |  5:01.35 |    179230    |   201839
       13  | 44:51.15 |  4:19.12 |    201840    |   221276
       14  | 49:10.27 |  5:16.60 |    221277    |   245036
Track  1
     Filename D:\OUTPUT FILES\01 Uniq - Oh Baby Baby.wav
     Pre-gap length  0:00:02.49
     Peak level 97.2 %
     Extraction speed 4.8 X
     Track quality 100.0 %
     Test CRC 03677AA7
     Copy CRC 03677AA7
     Track not present in AccurateRip database
     Copy OK
Track  2
     Filename D:\OUTPUT FILES\02 Uniq - Horizon.wav
     Pre-gap length  0:00:00.49
     Peak level 97.2 %
     Extraction speed 3.9 X
     Track quality 99.9 %
     Test CRC 457F1268
     Copy CRC 457F1268
     Track not present in AccurateRip database
     Copy OK
Track  3
     Filename D:\OUTPUT FILES\03 Uniq - I Don't Know.wav
     Peak level 97.2 %
     Extraction speed 4.9 X
     Track quality 100.0 %
     Test CRC 0FD96B9A
     Copy CRC 0FD96B9A
     Track not present in AccurateRip database
     Copy OK
Track  4
     Filename D:\OUTPUT FILES\04 Uniq - Remember.wav
     Peak level 97.2 %
     Extraction speed 6.1 X
     Track quality 100.0 %
     Test CRC 7DECC542
     Copy CRC 7DECC542
     Track not present in AccurateRip database
     Copy OK
Track  5
     Filename D:\OUTPUT FILES\05 Uniq - Someday.wav
     Pre-gap length  0:00:00.49
     Peak level 97.2 %
     Extraction speed 6.5 X
     Track quality 100.0 %
     Test CRC 0E762AB8
     Copy CRC 0E762AB8
     Track not present in AccurateRip database
     Copy OK
Track  6
     Filename D:\OUTPUT FILES\06 Uniq - Amore.wav
     Pre-gap length  0:00:00.16
     Peak level 97.2 %
     Extraction speed 5.2 X
     Track quality 99.9 %
     Test CRC 178C9AFA
     Copy CRC 178C9AFA
     Track not present in AccurateRip database
     Copy OK
Track  7
     Filename D:\OUTPUT FILES\07 Uniq - Prince Of My Dreams.wav
     Pre-gap length  0:00:00.16
     Peak level 97.2 %
     Extraction speed 5.9 X
     Track quality 100.0 %
     Test CRC 7E1D08F1
     Copy CRC 7E1D08F1
     Track not present in AccurateRip database
     Copy OK
Track  8
     Filename D:\OUTPUT FILES\08 Uniq - A Better Tomorrow.wav
     Pre-gap length  0:00:00.14
     Peak level 97.2 %
     Extraction speed 6.7 X
     Track quality 100.0 %
     Test CRC B569D43E
     Copy CRC B569D43E
     Track not present in AccurateRip database
     Copy OK
Track  9
     Filename D:\OUTPUT FILES\09 Uniq - Eternal Paradise.wav
     Pre-gap length  0:00:00.14
     Peak level 97.2 %
     Extraction speed 6.6 X
     Track quality 100.0 %
     Test CRC 4C055A15
     Copy CRC 4C055A15
     Track not present in AccurateRip database
     Copy OK
Track 10
     Filename D:\OUTPUT FILES\10 Uniq - Dreaming.wav
     Peak level 97.2 %
     Extraction speed 6.8 X
     Track quality 100.0 %
     Test CRC 276E9A28
     Copy CRC 276E9A28
     Track not present in AccurateRip database
     Copy OK
Track 11
     Filename D:\OUTPUT FILES\11 Uniq - Silver Rain.wav
     Pre-gap length  0:00:00.14
     Peak level 97.2 %
     Extraction speed 7.3 X
     Track quality 100.0 %
     Test CRC C73B91B8
     Copy CRC C73B91B8
     Track not present in AccurateRip database
     Copy OK
Track 12
     Filename D:\OUTPUT FILES\12 Uniq - Gravity.wav
     Pre-gap length  0:00:00.16
     Peak level 97.2 %
     Extraction speed 7.0 X
     Track quality 99.9 %
     Test CRC 12AA00F4
     Copy CRC 12AA00F4
     Track not present in AccurateRip database
     Copy OK
Track 13
     Filename D:\OUTPUT FILES\13 Uniq - Remember (Extended Version).wav
     Pre-gap length  0:00:02.82
     Peak level 97.2 %
     Extraction speed 7.9 X
     Track quality 100.0 %
     Test CRC 3E228B8D
     Copy CRC 3E228B8D
     Track not present in AccurateRip database
     Copy OK
Track 14
     Filename D:\OUTPUT FILES\14 Uniq - Amore (Extended Remix).wav
     Pre-gap length  0:00:00.48
     Peak level 97.9 %
     Extraction speed 8.4 X
     Track quality 100.0 %
     Test CRC 6D4DBF79
     Copy CRC 6D4DBF79
     Track not present in AccurateRip database
     Copy OK
None of the tracks are present in the AccurateRip database
No errors occurred
End of status report
==== Log checksum 7389EF87245F675135DB211934DEEBDD02518BAFC5E1FD3C9889A53B835704DB ====
Код:
REM GENRE Eurodance
REM DATE 1999
REM DISCID B30CC30E
REM COMMENT "ExactAudioCopy v1.0b3"
CATALOG 4988002381395
PERFORMER "Uniq"
TITLE "Amore"
FILE "01 Uniq - Oh Baby Baby.wav" WAVE
  TRACK 01 AUDIO
    TITLE "Oh Baby Baby"
    PERFORMER "Uniq"
    PREGAP 00:00:37
    INDEX 01 00:00:00
  TRACK 02 AUDIO
    TITLE "Horizon"
    PERFORMER "Uniq"
    INDEX 00 03:26:21
FILE "02 Uniq - Horizon.wav" WAVE
    INDEX 01 00:00:00
FILE "03 Uniq - I Don't Know.wav" WAVE
  TRACK 03 AUDIO
    TITLE "I Don't Know"
    PERFORMER "Uniq"
    INDEX 01 00:00:00
FILE "04 Uniq - Remember.wav" WAVE
  TRACK 04 AUDIO
    TITLE "Remember"
    PERFORMER "Uniq"
    INDEX 01 00:00:00
  TRACK 05 AUDIO
    TITLE "Someday"
    PERFORMER "Uniq"
    INDEX 00 03:15:46
FILE "05 Uniq - Someday.wav" WAVE
    INDEX 01 00:00:00
  TRACK 06 AUDIO
    TITLE "Amore"
    PERFORMER "Uniq"
    INDEX 00 03:35:33
FILE "06 Uniq - Amore.wav" WAVE
    INDEX 01 00:00:00
  TRACK 07 AUDIO
    TITLE "Prince Of My Dreams"
    PERFORMER "Uniq"
    INDEX 00 03:44:43
FILE "07 Uniq - Prince Of My Dreams.wav" WAVE
    INDEX 01 00:00:00
  TRACK 08 AUDIO
    TITLE "A Better Tomorrow"
    PERFORMER "Uniq"
    INDEX 00 03:04:21
FILE "08 Uniq - A Better Tomorrow.wav" WAVE
    INDEX 01 00:00:00
  TRACK 09 AUDIO
    TITLE "Eternal Paradise"
    PERFORMER "Uniq"
    INDEX 00 04:53:59
FILE "09 Uniq - Eternal Paradise.wav" WAVE
    INDEX 01 00:00:00
FILE "10 Uniq - Dreaming.wav" WAVE
  TRACK 10 AUDIO
    TITLE "Dreaming"
    PERFORMER "Uniq"
    INDEX 01 00:00:00
  TRACK 11 AUDIO
    TITLE "Silver Rain"
    PERFORMER "Uniq"
    INDEX 00 03:12:11
FILE "11 Uniq - Silver Rain.wav" WAVE
    INDEX 01 00:00:00
  TRACK 12 AUDIO
    TITLE "Gravity"
    PERFORMER "Uniq"
    INDEX 00 04:11:51
FILE "12 Uniq - Gravity.wav" WAVE
    INDEX 01 00:00:00
  TRACK 13 AUDIO
    TITLE "Remember (Extended Version)"
    PERFORMER "Uniq"
    INDEX 00 04:58:48
FILE "13 Uniq - Remember (Extended Version).wav" WAVE
    INDEX 01 00:00:00
  TRACK 14 AUDIO
    TITLE "Amore (Extended Remix)"
    PERFORMER "Uniq"
    INDEX 00 04:18:51
FILE "14 Uniq - Amore (Extended Remix).wav" WAVE
    INDEX 01 00:00:00
Код:
AUDIOCHECKER v2.0 beta (build 457) - by Dester - opdester@freemail.hu
~~~~~~~~~~~~~~~~~~~~~~~~~~~~~~~~~~
-=== DO NOT EDIT THIS FILE! ===-
Path: ...\Uniq - Amore (JP) 1999 (APE)
01 -=- 01 Uniq - Oh Baby Baby.ape -=- CDDA (100%)
02 -=- 02 Uniq - Horizon.ape -=- CDDA (100%)
03 -=- 03 Uniq - I Don't Know.ape -=- CDDA (100%)
04 -=- 04 Uniq - Remember.ape -=- CDDA (100%)
05 -=- 05 Uniq - Someday.ape -=- CDDA (100%)
06 -=- 06 Uniq - Amore.ape -=- CDDA (100%)
07 -=- 07 Uniq - Prince Of My Dreams.ape -=- CDDA (100%)
08 -=- 08 Uniq - A Better Tomorrow.ape -=- CDDA (100%)
09 -=- 09 Uniq - Eternal Paradise.ape -=- CDDA (100%)
10 -=- 10 Uniq - Dreaming.ape -=- CDDA (100%)
11 -=- 11 Uniq - Silver Rain.ape -=- CDDA (100%)
12 -=- 12 Uniq - Gravity.ape -=- CDDA (100%)
13 -=- 13 Uniq - Remember (Extended Version).ape -=- CDDA (100%)
14 -=- 14 Uniq - Amore (Extended Remix).ape -=- CDDA (100%)
Summary 100,00% CDDA
Правила, инструкции, FAQ!!!
Торрент  Добавлен [23 май 2019, 20:04] Скачать торрент Магнет ссылка
Скачать торрент
[ Размер 20.51 КБ / Просмотров 3 ]

Статус
Проверен 
 
Размер  483.65 МБ
Приватный: Нет (DHT включён)
.torrent скачан  0
Как залить торрент? | Как скачать Torrent? | Ошибка в торренте? Качайте магнет  


     Отправить личное сообщение
   
Страница 1 из 1
Показать сообщения за:  Поле сортировки  
Начать новую тему Ответить на тему


Сейчас этот форум просматривают: нет зарегистрированных пользователей и гости: 0


Вы не можете начинать темы
Вы не можете отвечать на сообщения
Вы не можете редактировать свои сообщения
Вы не можете удалять свои сообщения
Вы не можете добавлять вложения

Перейти:  
Ресурс не предоставляет электронные версии произведений, а занимается лишь коллекционированием и каталогизацией ссылок, присылаемых и публикуемых на форуме нашими читателями. Если вы являетесь правообладателем какого-либо представленного материала и не желаете чтобы ссылка на него находилась в нашем каталоге, свяжитесь с нами и мы незамедлительно удалим её. Файлы для обмена на трекере предоставлены пользователями сайта, и администрация не несёт ответственности за их содержание. Просьба не заливать файлы, защищенные авторскими правами, а также файлы нелегального содержания!
cron