Начать новую тему Ответить на тему
Статистика раздачи
Размер: 538.08 МБ | Добавлен: 23 май 2019, 20:06 | Скачали: 0
Сидеров: 0  [0 байт/сек]    Личеров: 0  [0 байт/сек]
Пред. тема | След. тема 

Автор
Сообщение

СообщениеДобавлено: 23 май 2019, 20:06 

Ответить с цитатой 

Dina / Dina
Жангр: Eurodance, Trance
Страна-производитель диска: Норвегия
Год издания: 2003
Издатель (лейбл): Tribe Records
Номер по каталогу: 6024 9813878 6
Страна: Норвегия
Аудиокодек: FLAC (*.flac)
Тип рипа: image+.cue
Битрейт аудио: lossless
Продолжительность: 00:45:00
Источник (релизер): Собственный рип
Наличие сканов в содержимом раздачи: да (PNG 600 DPI)
Треклист:
1. Fortapte drømmer
2. Bli hos meg
3. For evig min
4. Fri meg nå
5. Hater å elske deg
6. Aldri igjen
7. Savner deg
8. Nattens skapelser
9. Løgner
10. Ingen grenser
11. For evig min (Extended Mix)
12. Bli hos meg (Chill Mix)
Код:
X Lossless Decoder version 20130127 (142.3)
XLD extraction logfile from 2013-03-25 06:24:09 +0100
Dina / Dina
Used drive : MATSHITA DVD-R   UJ-898 (revision HE13)
Media type : Pressed CD
Ripper mode             : XLD Secure Ripper
Disable audio cache     : OK for the drive with a cache less than 1375KiB
Make use of C2 pointers : NO
Read offset correction  : 102
Max retry count         : 100
Gap status              : Analyzed, Appended
TOC of the extracted CD
     Track |   Start  |  Length  | Start sector | End sector
    ---------------------------------------------------------
        1  | 00:00:00 | 04:07:66 |         0    |    18590
        2  | 04:07:66 | 03:14:63 |     18591    |    33203
        3  | 07:22:54 | 03:23:54 |     33204    |    48482
        4  | 10:46:33 | 03:41:32 |     48483    |    65089
        5  | 14:27:65 | 04:04:16 |     65090    |    83405
        6  | 18:32:06 | 03:40:35 |     83406    |    99940
        7  | 22:12:41 | 03:36:60 |     99941    |   116200
        8  | 25:49:26 | 03:41:73 |    116201    |   132848
        9  | 29:31:24 | 03:13:09 |    132849    |   147332
       10  | 32:44:33 | 03:41:23 |    147333    |   163930
       11  | 36:25:56 | 05:39:05 |    163931    |   189360
       12  | 42:04:61 | 02:55:71 |    189361    |   202556
AccurateRip Summary (DiscID: 0013d9d3-00b99a09-ad0a8c0c)
    Track 01 : OK (v1, confidence 1/1)
    Track 02 : OK (v1, confidence 1/1)
    Track 03 : OK (v1, confidence 1/1)
    Track 04 : OK (v1, confidence 1/1)
    Track 05 : OK (v1, confidence 1/1)
    Track 06 : OK (v1, confidence 1/1)
    Track 07 : OK (v1, confidence 1/1)
    Track 08 : OK (v1, confidence 1/1)
    Track 09 : OK (v1, confidence 1/1)
    Track 10 : OK (v1, confidence 1/1)
    Track 11 : OK (v1, confidence 1/1)
    Track 12 : OK (v1, confidence 1/1)
        ->All tracks accurately ripped.
All Tracks
    Filename : Dina.flac
    CRC32 hash               : 089E54D3
    CRC32 hash (skip zero)   : B90398F3
    Statistics
        Read error                           : 0
        Jitter error (maybe fixed)           : 0
        Retry sector count                   : 11
        Damaged sector count                 : 0
Track 01
    Pre-gap length : 00:02:00
    CRC32 hash               : 97D040DF
    CRC32 hash (skip zero)   : 31B9AFB9
    AccurateRip v1 signature : 7E10F4D0
    AccurateRip v2 signature : BCF1F073
        ->Accurately ripped (v1, confidence 1/1)
    Statistics
        Read error                           : 0
        Jitter error (maybe fixed)           : 0
        Retry sector count                   : 0
        Damaged sector count                 : 0
Track 02
    CRC32 hash               : 24740EA5
    CRC32 hash (skip zero)   : A1F3B9DB
    AccurateRip v1 signature : 50E9E5E2
    AccurateRip v2 signature : D95A5220
        ->Accurately ripped (v1, confidence 1/1)
    Statistics
        Read error                           : 0
        Jitter error (maybe fixed)           : 0
        Retry sector count                   : 0
        Damaged sector count                 : 0
Track 03
    CRC32 hash               : 1F979F61
    CRC32 hash (skip zero)   : FE8F2C36
    AccurateRip v1 signature : 1C44640F
    AccurateRip v2 signature : 521C7057
        ->Accurately ripped (v1, confidence 1/1)
    Statistics
        Read error                           : 0
        Jitter error (maybe fixed)           : 0
        Retry sector count                   : 0
        Damaged sector count                 : 0
Track 04
    CRC32 hash               : 7B850EA4
    CRC32 hash (skip zero)   : 8764D5AD
    AccurateRip v1 signature : ECF05803
    AccurateRip v2 signature : A73C5451
        ->Accurately ripped (v1, confidence 1/1)
    Statistics
        Read error                           : 0
        Jitter error (maybe fixed)           : 0
        Retry sector count                   : 0
        Damaged sector count                 : 0
Track 05
    CRC32 hash               : A345441D
    CRC32 hash (skip zero)   : DB10A168
    AccurateRip v1 signature : 6CE19F59
    AccurateRip v2 signature : 5F636163
        ->Accurately ripped (v1, confidence 1/1)
    Statistics
        Read error                           : 0
        Jitter error (maybe fixed)           : 0
        Retry sector count                   : 0
        Damaged sector count                 : 0
Track 06
    CRC32 hash               : 11C3A264
    CRC32 hash (skip zero)   : 6761408F
    AccurateRip v1 signature : 6A9F7263
    AccurateRip v2 signature : 76E6873E
        ->Accurately ripped (v1, confidence 1/1)
    Statistics
        Read error                           : 0
        Jitter error (maybe fixed)           : 0
        Retry sector count                   : 0
        Damaged sector count                 : 0
Track 07
    CRC32 hash               : 24294C55
    CRC32 hash (skip zero)   : 81DCE0C3
    AccurateRip v1 signature : 7DAA410C
    AccurateRip v2 signature : 077F2E83
        ->Accurately ripped (v1, confidence 1/1)
    Statistics
        Read error                           : 0
        Jitter error (maybe fixed)           : 0
        Retry sector count                   : 0
        Damaged sector count                 : 0
Track 08
    CRC32 hash               : 456A2A91
    CRC32 hash (skip zero)   : 5197256B
    AccurateRip v1 signature : BB055392
    AccurateRip v2 signature : 3C004255
        ->Accurately ripped (v1, confidence 1/1)
    Statistics
        Read error                           : 0
        Jitter error (maybe fixed)           : 0
        Retry sector count                   : 0
        Damaged sector count                 : 0
Track 09
    CRC32 hash               : 7D2EEA46
    CRC32 hash (skip zero)   : F656F4D3
    AccurateRip v1 signature : 50A562F4
    AccurateRip v2 signature : AEA3CAA0
        ->Accurately ripped (v1, confidence 1/1)
    Statistics
        Read error                           : 0
        Jitter error (maybe fixed)           : 0
        Retry sector count                   : 0
        Damaged sector count                 : 0
Track 10
    CRC32 hash               : E3E9CD48
    CRC32 hash (skip zero)   : 44AE079D
    AccurateRip v1 signature : FE31F94C
    AccurateRip v2 signature : 8ACE9EE9
        ->Accurately ripped (v1, confidence 1/1)
    Statistics
        Read error                           : 0
        Jitter error (maybe fixed)           : 0
        Retry sector count                   : 0
        Damaged sector count                 : 0
Track 11
    CRC32 hash               : 6E0BD1F0
    CRC32 hash (skip zero)   : 6EA6BABC
    AccurateRip v1 signature : 2DC34735
    AccurateRip v2 signature : A87429B8
        ->Accurately ripped (v1, confidence 1/1)
    Statistics
        Read error                           : 0
        Jitter error (maybe fixed)           : 0
        Retry sector count                   : 0
        Damaged sector count                 : 0
Track 12
    CRC32 hash               : 7629D451
    CRC32 hash (skip zero)   : 15AE2205
    AccurateRip v1 signature : AC96F53C
    AccurateRip v2 signature : AF03B647
        ->Accurately ripped (v1, confidence 1/1)
    Statistics
        Read error                           : 0
        Jitter error (maybe fixed)           : 0
        Retry sector count                   : 11
        Damaged sector count                 : 0
No errors occurred
End of status report
Код:
TITLE "Dina"
PERFORMER "Dina"
REM DATE "2003-11-03T00:00:00Z"
REM DISCNUMBER 1
REM TOTALDISCS 1
REM DISCID AD0A8C0C
FILE "Dina.flac" WAVE
  TRACK 01 AUDIO
    TITLE "Fortapte drømmer"
    PERFORMER "Dina"
    SONGWRITER "Kurt Gaasø & Thomas Charles La Verdi"
    ISRC NOAMM0300686
    REM GENRE "Trance"
    INDEX 01 00:00:00
  TRACK 02 AUDIO
    TITLE "Bli hos meg"
    PERFORMER "Dina"
    SONGWRITER "Johan Gunnarsson, Richard Anderson & Caroline Dina Lillan Kongerud"
    ISRC NOAMM0300687
    REM GENRE "Trance"
    INDEX 01 04:07:66
  TRACK 03 AUDIO
    TITLE "For evig min"
    PERFORMER "Dina"
    SONGWRITER "Kurt Gaasø, Thomas Charles La Verdi & Caroline Dina Lillan Kongerud"
    ISRC NOAMM0300449
    REM GENRE "Trance"
    INDEX 01 07:22:54
  TRACK 04 AUDIO
    TITLE "Fri meg nå"
    PERFORMER "Dina"
    SONGWRITER "Keani, Kurt Gaasø & Caroline Dina Lillan Kongerud"
    ISRC NOAMM0300688
    REM GENRE "Trance"
    INDEX 01 10:46:33
  TRACK 05 AUDIO
    TITLE "Hater å elske deg"
    PERFORMER "Dina"
    SONGWRITER "Kurt Gaasø, Thomas Charles La Verdi & Caroline Dina Lillan Kongerud"
    ISRC NOAMM0300689
    REM GENRE "Trance"
    INDEX 01 14:27:65
  TRACK 06 AUDIO
    TITLE "Aldri igjen"
    PERFORMER "Dina"
    SONGWRITER "Kurt Gaasø, Thomas Charles La Verdi & Caroline Dina Lillan Kongerud"
    ISRC NOAMM0300690
    REM GENRE "Trance"
    INDEX 01 18:32:06
  TRACK 07 AUDIO
    TITLE "Savner deg"
    PERFORMER "Dina"
    SONGWRITER "Richard Anderson, Thomas Ahlstrand & Caroline Dina Lillan Kongerud"
    ISRC NOAMM0300691
    REM GENRE "Trance"
    INDEX 01 22:12:41
  TRACK 08 AUDIO
    TITLE "Nattens skapelser"
    PERFORMER "Dina"
    SONGWRITER "Kurt Gaasø, Thomas Charles La Verdi & Navid Ahmed Gondal"
    ISRC NOAMM0300692
    REM GENRE "Trance"
    INDEX 01 25:49:26
  TRACK 09 AUDIO
    TITLE "Løgner"
    PERFORMER "Dina"
    SONGWRITER "Richard Anderson & Caroline Dina Lillan Kongerud"
    ISRC NOAMM0300693
    REM GENRE "Trance"
    INDEX 01 29:31:24
  TRACK 10 AUDIO
    TITLE "Ingen grenser"
    PERFORMER "Dina"
    SONGWRITER "Navid Ahmed Gondal & Caroline Dina Lillan Kongerud"
    ISRC NOAMM0300694
    REM GENRE "Trance"
    INDEX 01 32:44:33
  TRACK 11 AUDIO
    TITLE "For evig min (Extended Mix)"
    PERFORMER "Dina"
    SONGWRITER "Kurt Gaasø, Thomas Charles La Verdi & Caroline Dina Lillan Kongerud"
    ISRC NOAMM0300448
    REM GENRE "Trance"
    INDEX 01 36:25:56
  TRACK 12 AUDIO
    TITLE "Bli hos meg (Chill Mix)"
    PERFORMER "Dina"
    SONGWRITER "Johan Gunnarsson, Richard Anderson & Caroline Dina Lillan Kongerud"
    ISRC NOAMM0300695
    REM GENRE "Acoustic"
    INDEX 01 42:04:61
Правила, инструкции, FAQ!!!
Торрент  Добавлен [23 май 2019, 20:06] Скачать торрент Магнет ссылка
Скачать торрент
[ Размер 11.58 КБ / Просмотров 3 ]

Статус
Проверен 
 
Размер  538.08 МБ
Приватный: Нет (DHT включён)
.torrent скачан  0
Как залить торрент? | Как скачать Torrent? | Ошибка в торренте? Качайте магнет  


     Отправить личное сообщение
   
Страница 1 из 1
Показать сообщения за:  Поле сортировки  
Начать новую тему Ответить на тему


Сейчас этот форум просматривают: нет зарегистрированных пользователей и гости: 0


Вы не можете начинать темы
Вы не можете отвечать на сообщения
Вы не можете редактировать свои сообщения
Вы не можете удалять свои сообщения
Вы не можете добавлять вложения

Перейти:  
Ресурс не предоставляет электронные версии произведений, а занимается лишь коллекционированием и каталогизацией ссылок, присылаемых и публикуемых на форуме нашими читателями. Если вы являетесь правообладателем какого-либо представленного материала и не желаете чтобы ссылка на него находилась в нашем каталоге, свяжитесь с нами и мы незамедлительно удалим её. Файлы для обмена на трекере предоставлены пользователями сайта, и администрация не несёт ответственности за их содержание. Просьба не заливать файлы, защищенные авторскими правами, а также файлы нелегального содержания!
cron