Начать новую тему Ответить на тему
Статистика раздачи
Размер: 131.79 МБ | Добавлен: 23 май 2019, 20:07 | Скачали: 0
Сидеров: 0  [0 байт/сек]    Личеров: 0  [0 байт/сек]
Пред. тема | След. тема 

Автор
Сообщение

СообщениеДобавлено: 23 май 2019, 20:07 

Ответить с цитатой 

The X-System / Tell Me Why (CDM)
Жанр: Eurodance / Rap
Страна-производитель диска: Germany
Год издания: 1998
Издатель (лейбл): ZYX
Номер по каталогу: ZYX 8800-8
Страна: Germany
Аудиокодек: APE (*.ape)
Тип рипа: tracks+.cue
Битрейт аудио: lossless
Продолжительность: 00:16:21
Источник (релизер): CD
Наличие сканов в содержимом раздачи: 600dpi PNG
Треклист:
1. Tell Me Why (Radio Mix) (3:06)
2. Tell Me Why (Lines Remix) (6:11)
3. Tell Me Why (Bohemian Style Mix) (3:10)
4. Tell Me Why (Lines Edit) (3:54)
Код:
Exact Audio Copy V1.0 beta 3 from 29. August 2011
EAC extraction logfile from 29. October 2012, 16:27
The X-System / Tell Me Why
Used drive  : ASUS    DRW-2014L1T   Adapter: 2  ID: 1
Read mode               : Secure
Utilize accurate stream : Yes
Defeat audio cache      : Yes
Make use of C2 pointers : No
Read offset correction                      : 6
Overread into Lead-In and Lead-Out          : No
Fill up missing offset samples with silence : Yes
Delete leading and trailing silent blocks   : No
Null samples used in CRC calculations       : Yes
Used interface                              : Native Win32 interface for Win NT & 2000
Gap handling                                : Appended to previous track
Used output format              : User Defined Encoder
Selected bitrate                : 896 kBit/s
Quality                         : High
Add ID3 tag                     : No
Command line compressor         : C:\Program Files (x86)\Monkey's Audio\wapet.exe
Additional command line options : %dest% -t "Track=%tracknr2%" -t "Artist=%artist%" -t "Title=%title%" -t "Album Artist=%albumartist%" -t "Album=%albumtitle%" -t "Genre=%genre%" -t "Year=%year%" -t "Comment=%comment%" -t "Composer=%composer%" "C:\Program Files (x86)\Monkey's Audio\MAC.exe" %source% %dest% -c3000 -v
TOC of the extracted CD
     Track |   Start  |  Length  | Start sector | End sector
    ---------------------------------------------------------
        1  |  0:00.00 |  3:06.00 |         0    |    13949
        2  |  3:06.00 |  6:10.50 |     13950    |    41749
        3  |  9:16.50 |  3:10.32 |     41750    |    56031
        4  | 12:27.07 |  3:54.10 |     56032    |    73591
Track  1
     Filename D:\OUTPUT FILES\01 The X-System - Tell Me Why (Radio Mix).wav
     Pre-gap length  0:00:02.00
     Peak level 99.9 %
     Extraction speed 4.7 X
     Track quality 100.0 %
     Test CRC 35F75AAB
     Copy CRC 35F75AAB
     Track not present in AccurateRip database
     Copy OK
Track  2
     Filename D:\OUTPUT FILES\02 The X-System - Tell Me Why (Lines Remix).wav
     Pre-gap length  0:00:00.26
     Peak level 99.9 %
     Extraction speed 5.8 X
     Track quality 100.0 %
     Test CRC F1316591
     Copy CRC F1316591
     Track not present in AccurateRip database
     Copy OK
Track  3
     Filename D:\OUTPUT FILES\03 The X-System - Tell Me Why (Bohemian Style Mix).wav
     Pre-gap length  0:06:10.93
     Peak level 79.4 %
     Extraction speed 5.9 X
     Track quality 100.0 %
     Test CRC 2CF22479
     Copy CRC 2CF22479
     Track not present in AccurateRip database
     Copy OK
Track  4
     Filename D:\OUTPUT FILES\04 The X-System - Tell Me Why (Lines Edit).wav
     Pre-gap length  0:09:21.36
     Peak level 99.9 %
     Extraction speed 6.4 X
     Track quality 100.0 %
     Test CRC 0E583A49
     Copy CRC 0E583A49
     Track not present in AccurateRip database
     Copy OK
None of the tracks are present in the AccurateRip database
No errors occurred
End of status report
---- CUETools DB Plugin V2.1.3
[CTDB TOCID: jMZkHSvinOvIfTKBciIJdizcVoE-] disk not present in database, Submit result: jMZkHSvinOvIfTKBciIJdizcVoE- has been uploaded
==== Log checksum D559E3D14D729D2D6C40B7C8DFA47D17D2CF6668FEA8B696FD445316493F3267 ====
Код:
REM GENRE Hip-Hop
REM DATE 1998
REM DISCID 3903D504
REM COMMENT "ExactAudioCopy v1.0b3"
PERFORMER "The X-System"
TITLE "Tell Me Why"
FILE "01 The X-System - Tell Me Why (Radio Mix).wav" WAVE
  TRACK 01 AUDIO
    TITLE "Tell Me Why (Radio Mix)"
    PERFORMER "The X-System"
    ISRC <cH[19801298
    INDEX 01 00:00:00
  TRACK 02 AUDIO
    TITLE "Tell Me Why (Lines Remix)"
    PERFORMER "The X-System"
    ISRC <cH[19801299
    INDEX 00 03:05:55
FILE "02 The X-System - Tell Me Why (Lines Remix).wav" WAVE
    INDEX 01 00:00:00
  TRACK 03 AUDIO
    TITLE "Tell Me Why (Bohemian Style Mix)"
    PERFORMER "The X-System"
    ISRC <cH[19801300
    INDEX 00 00:00:55
FILE "03 The X-System - Tell Me Why (Bohemian Style Mix).wav" WAVE
    INDEX 01 00:00:00
  TRACK 04 AUDIO
    TITLE "Tell Me Why (Lines Edit)"
    PERFORMER "The X-System"
    ISRC <cH[19801301
    INDEX 00 04:50:05
FILE "04 The X-System - Tell Me Why (Lines Edit).wav" WAVE
    INDEX 01 00:00:00
Правила, инструкции, FAQ!!!
Торрент  Добавлен [23 май 2019, 20:07] Скачать торрент Магнет ссылка
Скачать торрент
[ Размер 11.44 КБ / Просмотров 3 ]

Статус
Проверен 
 
Размер  131.79 МБ
Приватный: Нет (DHT включён)
.torrent скачан  0
Как залить торрент? | Как скачать Torrent? | Ошибка в торренте? Качайте магнет  


     Отправить личное сообщение
   
Страница 1 из 1
Показать сообщения за:  Поле сортировки  
Начать новую тему Ответить на тему


Сейчас этот форум просматривают: нет зарегистрированных пользователей и гости: 0


Вы не можете начинать темы
Вы не можете отвечать на сообщения
Вы не можете редактировать свои сообщения
Вы не можете удалять свои сообщения
Вы не можете добавлять вложения

Перейти:  
Ресурс не предоставляет электронные версии произведений, а занимается лишь коллекционированием и каталогизацией ссылок, присылаемых и публикуемых на форуме нашими читателями. Если вы являетесь правообладателем какого-либо представленного материала и не желаете чтобы ссылка на него находилась в нашем каталоге, свяжитесь с нами и мы незамедлительно удалим её. Файлы для обмена на трекере предоставлены пользователями сайта, и администрация не несёт ответственности за их содержание. Просьба не заливать файлы, защищенные авторскими правами, а также файлы нелегального содержания!
cron