Начать новую тему Ответить на тему
Статистика раздачи
Размер: 229.2 МБ | Добавлен: 23 май 2019, 20:06 | Скачали: 0
Сидеров: 0  [0 байт/сек]    Личеров: 0  [0 байт/сек]
Пред. тема | След. тема 

Автор
Сообщение

СообщениеДобавлено: 23 май 2019, 20:06 

Ответить с цитатой 

Sunvibe / Dreamer (CDM)
Жанр: Eurodance / Rap
Страна-производитель диска: Germany
Год издания: 1998
Издатель (лейбл): WEA
Номер по каталогу: 3984 21758-2
Страна: Germany
Аудиокодек: APE (*.ape)
Тип рипа: tracks+.cue
Битрейт аудио: lossless
Продолжительность: 00:26:41
Источник (релизер): CD
Наличие сканов в содержимом раздачи: 600dpi PNG
Треклист:
1. Dreamer (Original Radio Edit) [03:41]
2. Dreamer (Heavy Vibe Radio Edit) [03:58]
3. Dreamer (Funky Beat Club Edit) [08:24]
4. Dreamer (Original Version) [05:33]
5. Dreamer (Heavy Vibe Extended) [05:05]
Код:
Exact Audio Copy V1.0 beta 3 from 29. August 2011
EAC extraction logfile from 11. October 2012, 18:39
Sunvibe / Dreamer
Used drive  : ASUS    DRW-2014L1T   Adapter: 2  ID: 1
Read mode               : Secure
Utilize accurate stream : Yes
Defeat audio cache      : Yes
Make use of C2 pointers : No
Read offset correction                      : 6
Overread into Lead-In and Lead-Out          : No
Fill up missing offset samples with silence : Yes
Delete leading and trailing silent blocks   : No
Null samples used in CRC calculations       : Yes
Used interface                              : Native Win32 interface for Win NT & 2000
Gap handling                                : Appended to previous track
Used output format              : User Defined Encoder
Selected bitrate                : 896 kBit/s
Quality                         : High
Add ID3 tag                     : No
Command line compressor         : C:\Program Files (x86)\Monkey's Audio\wapet.exe
Additional command line options : %dest% -t "Track=%tracknr2%" -t "Artist=%artist%" -t "Title=%title%" -t "Album Artist=%albumartist%" -t "Album=%albumtitle%" -t "Genre=%genre%" -t "Year=%year%" -t "Comment=%comment%" -t "Composer=%composer%" "C:\Program Files (x86)\Monkey's Audio\MAC.exe" %source% %dest% -c3000 -v
TOC of the extracted CD
     Track |   Start  |  Length  | Start sector | End sector
    ---------------------------------------------------------
        1  |  0:00.00 |  3:41.12 |         0    |    16586
        2  |  3:41.12 |  3:58.68 |     16587    |    34504
        3  |  7:40.05 |  8:24.52 |     34505    |    72356
        4  | 16:04.57 |  5:33.55 |     72357    |    97386
        5  | 21:38.37 |  5:05.38 |     97387    |   120299
Track  1
     Filename D:\OUTPUT FILES\01 Sunvibe - Dreamer (Original Radio Edit).wav
     Pre-gap length  0:00:02.00
     Peak level 96.6 %
     Extraction speed 4.9 X
     Track quality 100.0 %
     Test CRC BF127303
     Copy CRC BF127303
     Track not present in AccurateRip database
     Copy OK
Track  2
     Filename D:\OUTPUT FILES\02 Sunvibe - Dreamer (Heavy Vibe Radio Edit).wav
     Pre-gap length  0:00:00.26
     Peak level 96.6 %
     Extraction speed 5.5 X
     Track quality 100.0 %
     Test CRC 201CC4E6
     Copy CRC 201CC4E6
     Track not present in AccurateRip database
     Copy OK
Track  3
     Filename D:\OUTPUT FILES\03 Sunvibe - Dreamer (Funky Beat Club Edit).wav
     Pre-gap length  0:03:59.17
     Peak level 96.6 %
     Extraction speed 6.6 X
     Track quality 100.0 %
     Test CRC 4477E88A
     Copy CRC 4477E88A
     Track not present in AccurateRip database
     Copy OK
Track  4
     Filename D:\OUTPUT FILES\04 Sunvibe - Dreamer (Original Version).wav
     Pre-gap length  0:12:23.86
     Peak level 96.6 %
     Extraction speed 7.1 X
     Track quality 100.0 %
     Test CRC F0AB9362
     Copy CRC F0AB9362
     Track not present in AccurateRip database
     Copy OK
Track  5
     Filename D:\OUTPUT FILES\05 Sunvibe - Dreamer (Heavy Vibe Extended).wav
     Pre-gap length  0:17:53.40
     Peak level 96.6 %
     Extraction speed 7.5 X
     Track quality 100.0 %
     Test CRC 8663C889
     Copy CRC 8663C889
     Track not present in AccurateRip database
     Copy OK
None of the tracks are present in the AccurateRip database
No errors occurred
End of status report
---- CUETools DB Plugin V2.1.3
[CTDB TOCID: l9xGmWnzcI7GVc5RBOWpUfLclrQ-] found, Submit result: already submitted
[5ca1d807] (2/2) Accurately ripped
==== Log checksum 25CF467699E605C0719DA00501453F149F26EE11797C2271D5D5EC799843FF43 ====
Код:
REM GENRE Hip-Hop
REM DATE 1998
REM DISCID 2E064405
REM COMMENT "ExactAudioCopy v1.0b3"
CATALOG 3984217580200
PERFORMER "Sunvibe"
TITLE "Dreamer"
FILE "01 Sunvibe - Dreamer (Original Radio Edit).wav" WAVE
  TRACK 01 AUDIO
    TITLE "Dreamer (Original Radio Edit)"
    PERFORMER "Sunvibe"
    ISRC <cH^29762700
    INDEX 01 00:00:00
  TRACK 02 AUDIO
    TITLE "Dreamer (Heavy Vibe Radio Edit)"
    PERFORMER "Sunvibe"
    ISRC <cH^29762701
    INDEX 00 03:38:30
FILE "02 Sunvibe - Dreamer (Heavy Vibe Radio Edit).wav" WAVE
    INDEX 01 00:00:00
  TRACK 03 AUDIO
    TITLE "Dreamer (Funky Beat Club Edit)"
    PERFORMER "Sunvibe"
    ISRC <cH^29762702
    INDEX 00 03:56:10
FILE "03 Sunvibe - Dreamer (Funky Beat Club Edit).wav" WAVE
    INDEX 01 00:00:00
  TRACK 04 AUDIO
    TITLE "Dreamer (Original Version)"
    PERFORMER "Sunvibe"
    ISRC <cH^29762703
    INDEX 00 08:21:70
FILE "04 Sunvibe - Dreamer (Original Version).wav" WAVE
    INDEX 01 00:00:00
  TRACK 05 AUDIO
    TITLE "Dreamer (Heavy Vibe Extended)"
    PERFORMER "Sunvibe"
    ISRC <cH^29762704
    INDEX 00 05:30:73
FILE "05 Sunvibe - Dreamer (Heavy Vibe Extended).wav" WAVE
    INDEX 01 00:00:00
Правила, инструкции, FAQ!!!
Торрент  Добавлен [23 май 2019, 20:06] Скачать торрент Магнет ссылка
Скачать торрент
[ Размер 19.08 КБ / Просмотров 7 ]

Статус
Проверен 
 
Размер  229.2 МБ
Приватный: Нет (DHT включён)
.torrent скачан  0
Как залить торрент? | Как скачать Torrent? | Ошибка в торренте? Качайте магнет  


     Отправить личное сообщение
   
Страница 1 из 1
Показать сообщения за:  Поле сортировки  
Начать новую тему Ответить на тему


Сейчас этот форум просматривают: нет зарегистрированных пользователей и гости: 0


Вы не можете начинать темы
Вы не можете отвечать на сообщения
Вы не можете редактировать свои сообщения
Вы не можете удалять свои сообщения
Вы не можете добавлять вложения

Перейти:  
Ресурс не предоставляет электронные версии произведений, а занимается лишь коллекционированием и каталогизацией ссылок, присылаемых и публикуемых на форуме нашими читателями. Если вы являетесь правообладателем какого-либо представленного материала и не желаете чтобы ссылка на него находилась в нашем каталоге, свяжитесь с нами и мы незамедлительно удалим её. Файлы для обмена на трекере предоставлены пользователями сайта, и администрация не несёт ответственности за их содержание. Просьба не заливать файлы, защищенные авторскими правами, а также файлы нелегального содержания!
cron