Начать новую тему Ответить на тему
Статистика раздачи
Размер: 586.21 МБ | Добавлен: 23 май 2019, 20:02 | Скачали: 0
Сидеров: 0  [0 байт/сек]    Личеров: 0  [0 байт/сек]
Пред. тема | След. тема 

Автор
Сообщение

СообщениеДобавлено: 23 май 2019, 20:02 

Ответить с цитатой 

VIVA Best Of Mix #5 (Studio 33 - The 34th Story)
Жанр: Eurodance, Pop
Страна-производитель диска: Russia
Год издания: 2000
Издатель (лейбл): Invisible Halahup
Аудиокодек: FLAC (*.flac)
Тип рипа: image+.cue
Битрейт аудио: lossless
Продолжительность: 1:13:43
Источник (релизер): Собственный рип
Наличие сканов в содержимом раздачи: да
Сборник является копией оригинального выпуска
** Various‎–Studio 33-The 34th Story ** немецкой
Studio 33 Records
Tracklist :
01 Intro
Zladtko - Ich Vermiss Dich Wie Die Hölle
M-Pac - Das Moorhuhn
02 Hampton The Hamster - Hamster Song
Judy Ross - Feel The Rhythm Of The Night
03 A.B.A. - Like A Butterfly
Lady Violet - Beautiful World
Aquagen - Partyalarm
04 Modern Talking - Don`t Take Away My Heart
Houseless - Dance Police
05 DJ Maul - Feel The Beat
ATB - The Summer
06 Paps N Skur - Turn Around
07 Mary C - Bang Bang Bang
08 Aquagen - Partyalarm
Gitta - No More Turning Back
09 Tantra - Weekend
DJ Maul - Keep On Dancing
10 Triple S - All U DJ`s
Alice Deejay - Will I Ever
11 DJ Taylor & Flow - Exzess
X-Treme - Sleep
12 Fragma - Toca`s Miracle
13 Web - Lovin Times
14 William Orbit - Ravel`s Pavane Pour Une Enfante Defunte
15 Dune - Heaven
16 A / Seven - Piece Of Heaven
17 Ken Lazlo Meets Morgana - Maybe A Lonely Night
18 Qu-Zar - Hypnotize
19 Paul Van Dyk Feat. St. Etienne - Tell Me Why
20 Hypetraxx - The Darkside
21 Kosmonova - Danse Avec Moi
22 French Affair - Do What You Like
23 GiGi D`Agostino - Another Way
Jump`n Joy - Vamoz Everybody
24 More - Around The World
25 Kim Lukas - Let It Be The Night
26 Whigfield - Doo Whop
27 Dario G. - Voices
28 Westbam - Love Bass
29 Aqua - Around The World
30 A-Teens - Gimme! Gimme! Gimme!
31 Eiffel 65 - My Console
32 Mumm vs Dhany - I Wanna Be Free
Block 15 - Saturday
33 Quik Feat. Charlotte - Need You Tonite
34 Asira - Mama
N.Y.C.C. - No Sleep
35 System F - Cry
Nick Beat - Technodisco
Tyrell Corp. - Running 2.0
36 Woody Van Eyden - Feels Like Flyin`
Keine Ahnung Feat. Big Brain - Wer Ist Shakesbier?
37 Hooligan - The Culture
Da Hool - Eichelrück
Taucher - Science Fiction
38 Miss Peppermint - Day By Day
DJ Maul - Keep On Dancing
39 Masterboy - Feel The Beat 2000
40 DJ Aligator Project - The Whistle Song
Balloon - Pussylover
41 Hampton The Hamster - Hamster Song
42 Suco E Sol - Ylarie
Triple 8 - All U DJ`s
43 Sigue Sigue Sputnik - Love Missile F1-11
44 Aquagen - Partyalarm
Storm - Time To Burn
45 Avancada - Dirty Bitch
46 Sisq6 - Thong Song
47 Passion Fruit - Wonderland
48 Moorhuhn Feat. Wigald Boning - Moorhuhn
49 Layton & Stone - Feel It
50 Barbara Tucker - Stop Playing With My Mind
51 Superfunk Feat. Ron Carroll - Lucky Star
52 Gloria Gaynor - Last Night
53 Wisdome - Off The Wall
54 DJ Jean - Love Come Home
55 Lara Fabian - I Will Love Again
56 John Davis - I Promised Myself
57 SM Trax - At The Club
58 Bomfunk MC`s - Freestyler
59 Manu Chap - Bongo Bong
60 TQ - Daily
61 Tony Braxton - He Wasn`t Man Enough
62 Four Colourz - ABCD
63 Marvin Mc Kay Feat. Seven - Ohne Dich
64 Aleksey - Wen Soll Ich Fürchten
65 Lil` Cease - Play Around
66 Britney Spears - Ops!... I Did It Again
67 En Vogue - Riddle
68 Sasha - Let Me Be The One
69 T-One - Tom`s Diner 2000
70 Montell Jordan - Get It On Tonight
71 Mandy Moore - Candy
72 Die 3. Generation - Leb
73 Sonny Jones Feat. Tara Chase - Follow You Follow Me
74 Jon Secada - Stop
75 Snap - Gimme A Thrill
76 Backstreet Boys - The One
Код:
Exact Audio Copy V1.0 beta 3 from 29. August 2011
Отчёт EAC об извлечении, выполненном 16. марта 2014, 16:17
Various Artists / VIVA BEST OF MIX  # 5
Дисковод: PLEXTOR BD-R  PX-B950SA   Adapter: 0  ID: 4
Режим чтения                 : Достоверность
Использование точного потока : Да
Отключение кэша аудио        : Да
Использование указателей C2  : Нет
Коррекция смещения при чтении                     : 6
Способность читать области Lead-in и Lead-out     : Нет
Заполнение пропущенных сэмплов тишиной            : Да
Удаление блоков с тишиной в начале и конце        : Нет
При вычислениях CRC использовались нулевые сэмплы : Да
Интерфейс                                         : Встроенный Win32-интерфейс для Win NT/2000
Выходной формат          : Пользовательский кодировщик
Выбранный битрейт        : 1024 kBit/s
Качество                 : Высокий
Добавление ID3-тега      : Нет
Утилита сжатия           : N:\ПРОГРАММЫ\Exact Audio Copy\FLAC\FLAC.EXE
Дополнительные параметры : -6 -V -T "ARTIST=%artist%" -T "TITLE=%title%" -T "ALBUM=%albumtitle%" -T "DATE=%year%" -T "TRACKNUMBER=%tracknr%" -T "GENRE=%genre%" -T "COMMENT=%comment%" -T "BAND=%albuminterpret%" -T "ALBUMARTIST=%albuminterpret%" -T "COMPOSER=%composer%" %haslyrics%--tag-from-file=LYRICS="%lyricsfile%"%haslyrics% -T "DISCNUMBER=%cdnumber%" -T "TOTALDISCS=%totalcds%" -T "TOTALTRACKS=%numtracks%" %hascover%--picture="%coverfile%"%hascover% %source% -o %dest%
TOC извлечённого CD
     Трек |   Старт  | Длительность | Начальный сектор | Конечный сектор
    ---------------------------------------------------------------------
       1  |  0:00.00 |    1:01.37   |           0      |       4611
       2  |  1:01.37 |    0:45.43   |        4612      |       8029
       3  |  1:47.05 |    1:22.67   |        8030      |      14246
       4  |  3:09.72 |    1:15.05   |       14247      |      19876
       5  |  4:25.02 |    1:21.15   |       19877      |      25966
       6  |  5:46.17 |    1:11.44   |       25967      |      31335
       7  |  6:57.61 |    0:59.04   |       31336      |      35764
       8  |  7:56.65 |    0:41.17   |       35765      |      38856
       9  |  8:38.07 |    1:12.64   |       38857      |      44320
      10  |  9:50.71 |    1:04.54   |       44321      |      49174
      11  | 10:55.50 |    1:37.18   |       49175      |      56467
      12  | 12:32.68 |    1:07.26   |       56468      |      61518
      13  | 13:40.19 |    1:10.06   |       61519      |      66774
      14  | 14:50.25 |    1:02.63   |       66775      |      71487
      15  | 15:53.13 |    0:42.40   |       71488      |      74677
      16  | 16:35.53 |    0:27.26   |       74678      |      76728
      17  | 17:03.04 |    1:24.34   |       76729      |      83062
      18  | 18:27.38 |    1:10.05   |       83063      |      88317
      19  | 19:37.43 |    0:55.24   |       88318      |      92466
      20  | 20:32.67 |    1:30.33   |       92467      |      99249
      21  | 22:03.25 |    0:55.51   |       99250      |     103425
      22  | 22:59.01 |    1:26.24   |      103426      |     109899
      23  | 24:25.25 |    1:14.46   |      109900      |     115495
      24  | 25:39.71 |    1:27.27   |      115496      |     122047
      25  | 27:07.23 |    1:02.57   |      122048      |     126754
      26  | 28:10.05 |    1:14.64   |      126755      |     132368
      27  | 29:24.69 |    0:44.61   |      132369      |     135729
      28  | 30:09.55 |    1:01.53   |      135730      |     140357
      29  | 31:11.33 |    1:20.57   |      140358      |     146414
      30  | 32:32.15 |    1:17.36   |      146415      |     152225
      31  | 33:49.51 |    1:25.52   |      152226      |     158652
      32  | 35:15.28 |    1:27.72   |      158653      |     165249
      33  | 36:43.25 |    0:51.60   |      165250      |     169134
      34  | 37:35.10 |    1:12.24   |      169135      |     174558
      35  | 38:47.34 |    2:08.53   |      174559      |     184211
      36  | 40:56.12 |    0:42.17   |      184212      |     187378
      37  | 41:38.29 |    0:28.11   |      187379      |     189489
      38  | 42:06.40 |    1:17.31   |      189490      |     195295
      39  | 43:23.71 |    1:10.36   |      195296      |     200581
      40  | 44:34.32 |    0:29.44   |      200582      |     202800
      41  | 45:04.01 |    1:11.44   |      202801      |     208169
      42  | 46:15.45 |    0:57.03   |      208170      |     212447
      43  | 47:12.48 |    1:33.16   |      212448      |     219438
      44  | 48:45.64 |    0:34.42   |      219439      |     222030
      45  | 49:20.31 |    0:13.61   |      222031      |     223066
      46  | 49:34.17 |    1:34.62   |      223067      |     230178
      47  | 51:09.04 |    0:51.23   |      230179      |     234026
      48  | 52:00.27 |    1:17.60   |      234027      |     239861
      49  | 53:18.12 |    0:45.51   |      239862      |     243287
      50  | 54:03.63 |    0:30.19   |      243288      |     245556
      51  | 54:34.07 |    0:59.67   |      245557      |     250048
      52  | 55:33.74 |    0:53.25   |      250049      |     254048
      53  | 56:27.24 |    0:44.04   |      254049      |     257352
      54  | 57:11.28 |    1:00.31   |      257353      |     261883
      55  | 58:11.59 |    1:20.60   |      261884      |     267943
      56  | 59:32.44 |    0:30.68   |      267944      |     270261
      57  | 60:03.37 |    0:44.59   |      270262      |     273620
      58  | 60:48.21 |    0:47.34   |      273621      |     277179
      59  | 61:35.55 |    0:58.04   |      277180      |     281533
      60  | 62:33.59 |    0:44.44   |      281534      |     284877
      61  | 63:18.28 |    1:03.24   |      284878      |     289626
      62  | 64:21.52 |    0:24.17   |      289627      |     291443
      63  | 64:45.69 |    0:25.48   |      291444      |     293366
      64  | 65:11.42 |    0:21.19   |      293367      |     294960
      65  | 65:32.61 |    0:20.38   |      294961      |     296498
      66  | 65:53.24 |    1:00.46   |      296499      |     301044
      67  | 66:53.70 |    0:19.67   |      301045      |     302536
      68  | 67:13.62 |    1:01.14   |      302537      |     307125
      69  | 68:15.01 |    0:28.62   |      307126      |     309287
      70  | 68:43.63 |    0:39.09   |      309288      |     312221
      71  | 69:22.72 |    0:39.20   |      312222      |     315166
      72  | 70:02.17 |    0:42.54   |      315167      |     318370
      73  | 70:44.71 |    0:55.71   |      318371      |     322566
      74  | 71:40.67 |    0:36.06   |      322567      |     325272
      75  | 72:16.73 |    0:27.07   |      325273      |     327304
      76  | 72:44.05 |    0:58.36   |      327305      |     331690
Характеристики диапазона извлечения и сообщения об ошибках
Выбранный диапазон
     Имя файла C:\Users\8alex_000\Desktop\Various Artists - VIVA BEST OF MIX  # 5.wav
     Пиковый уровень 99.4 %
     Скорость извлечения 8.1 X
     Качество диапазона 100.0 %
     CRC теста B381C0B2
     CRC копии B381C0B2
     Копирование... OK
Ошибок не произошло
AccurateRip: сводка
Трек  1  точность не определена (достоверность 1)  [506059B3], AccurateRip вернул [980F734A]  (AR v2)
Трек  2  точность не определена (достоверность 1)  [A75DF44B], AccurateRip вернул [2D041DDB]  (AR v2)
Трек  3  точность не определена (достоверность 1)  [828E80B9], AccurateRip вернул [D8D65ED3]  (AR v2)
Трек  4  точность не определена (достоверность 1)  [CD39758C], AccurateRip вернул [7FEE319E]  (AR v2)
Трек  5  точность не определена (достоверность 1)  [44ECA725], AccurateRip вернул [1D24C6A5]  (AR v2)
Трек  6  точность не определена (достоверность 1)  [707F2281], AccurateRip вернул [FCBC8F30]  (AR v2)
Трек  7  точность не определена (достоверность 1)  [23BC52DC], AccurateRip вернул [02871438]  (AR v2)
Трек  8  точность не определена (достоверность 1)  [B641C9F7], AccurateRip вернул [3860CA99]  (AR v2)
Трек  9  точность не определена (достоверность 1)  [F109C57A], AccurateRip вернул [0F3D473B]  (AR v2)
Трек 10  точность не определена (достоверность 1)  [2F4656CF], AccurateRip вернул [1FEB8337]  (AR v2)
Трек 11  точность не определена (достоверность 1)  [B4C79615], AccurateRip вернул [47BAFA20]  (AR v2)
Трек 12  точность не определена (достоверность 1)  [4563CD2C], AccurateRip вернул [660967B3]  (AR v2)
Трек 13  точность не определена (достоверность 1)  [18109438], AccurateRip вернул [08C8B2E9]  (AR v2)
Трек 14  точность не определена (достоверность 1)  [8E2AF18C], AccurateRip вернул [20F4C989]  (AR v2)
Трек 15  точность не определена (достоверность 1)  [80A95039], AccurateRip вернул [E40729FF]  (AR v2)
Трек 16  точность не определена (достоверность 1)  [BB3EE597], AccurateRip вернул [D5A0A617]  (AR v2)
Трек 17  точность не определена (достоверность 1)  [8208DAF2], AccurateRip вернул [F4398CDF]  (AR v2)
Трек 18  точность не определена (достоверность 1)  [68000E69], AccurateRip вернул [E2D7D95E]  (AR v2)
Трек 19  точность не определена (достоверность 1)  [933BA4B4], AccurateRip вернул [5D67CD6D]  (AR v2)
Трек 20  точность не определена (достоверность 1)  [BF860293], AccurateRip вернул [1A09422B]  (AR v2)
Трек 21  точность не определена (достоверность 1)  [DAF79AE5], AccurateRip вернул [70D8F4BA]  (AR v2)
Трек 22  точность не определена (достоверность 1)  [F889CD6B], AccurateRip вернул [FB44A411]  (AR v2)
Трек 23  точность не определена (достоверность 1)  [4C3339B8], AccurateRip вернул [D48DE0A1]  (AR v2)
Трек 24  точность не определена (достоверность 1)  [A0F7D278], AccurateRip вернул [52EA8357]  (AR v2)
Трек 25  точность не определена (достоверность 1)  [B263836F], AccurateRip вернул [3A834876]  (AR v2)
Трек 26  точность не определена (достоверность 1)  [1D26151C], AccurateRip вернул [A4EDA4A1]  (AR v2)
Трек 27  точность не определена (достоверность 1)  [C0C2C288], AccurateRip вернул [2412EE35]  (AR v2)
Трек 28  точность не определена (достоверность 1)  [F37B4EC7], AccurateRip вернул [16C60D2E]  (AR v2)
Трек 29  точность не определена (достоверность 1)  [FF51C7A4], AccurateRip вернул [AC9E5933]  (AR v2)
Трек 30  точность не определена (достоверность 1)  [25FE315D], AccurateRip вернул [8BF4E103]  (AR v2)
Трек 31  точность не определена (достоверность 1)  [FE6D5A84], AccurateRip вернул [F2670A3A]  (AR v2)
Трек 32  точность не определена (достоверность 1)  [88C32660], AccurateRip вернул [969F92C2]  (AR v2)
Трек 33  точность не определена (достоверность 1)  [6DCC5A6F], AccurateRip вернул [846C2306]  (AR v2)
Трек 34  точность не определена (достоверность 1)  [1E0083DA], AccurateRip вернул [65107C3C]  (AR v2)
Трек 35  точность не определена (достоверность 1)  [D86B5517], AccurateRip вернул [B98AE6BC]  (AR v2)
Трек 36  точность не определена (достоверность 1)  [4B28AF15], AccurateRip вернул [BFFD4941]  (AR v2)
Трек 37  точность не определена (достоверность 1)  [20C28353], AccurateRip вернул [A56EE27B]  (AR v2)
Трек 38  точность не определена (достоверность 1)  [09480A7E], AccurateRip вернул [22D021A4]  (AR v2)
Трек 39  точность не определена (достоверность 1)  [C9AA9AD5], AccurateRip вернул [E085E761]  (AR v2)
Трек 40  точность не определена (достоверность 1)  [CBC27367], AccurateRip вернул [4B9B5469]  (AR v2)
Трек 41  точность не определена (достоверность 1)  [F531AE41], AccurateRip вернул [9F613E0B]  (AR v2)
Трек 42  точность не определена (достоверность 1)  [938A89EE], AccurateRip вернул [9A5340B6]  (AR v2)
Трек 43  точность не определена (достоверность 1)  [720C7333], AccurateRip вернул [2647E7EB]  (AR v2)
Трек 44  точность не определена (достоверность 1)  [A3190348], AccurateRip вернул [C609C8F1]  (AR v2)
Трек 45  точность не определена (достоверность 1)  [5B9A345D], AccurateRip вернул [408D2242]  (AR v2)
Трек 46  точность не определена (достоверность 1)  [31E3DBC3], AccurateRip вернул [918DBBA0]  (AR v2)
Трек 47  точность не определена (достоверность 1)  [50BF4B85], AccurateRip вернул [7C487A93]  (AR v2)
Трек 48  точность не определена (достоверность 1)  [F3E9143E], AccurateRip вернул [A671A78C]  (AR v2)
Трек 49  точность не определена (достоверность 1)  [B3FC2DFA], AccurateRip вернул [1E2789FB]  (AR v2)
Трек 50  точность не определена (достоверность 1)  [D9A2FAD4], AccurateRip вернул [5BBFD9C2]  (AR v2)
Трек 51  точность не определена (достоверность 1)  [6A2F0710], AccurateRip вернул [F679697E]  (AR v2)
Трек 52  точность не определена (достоверность 1)  [5A18544D], AccurateRip вернул [7CD881C7]  (AR v2)
Трек 53  точность не определена (достоверность 1)  [063F2D79], AccurateRip вернул [DB6D9D50]  (AR v2)
Трек 54  точность не определена (достоверность 1)  [11FF367F], AccurateRip вернул [53E480AB]  (AR v2)
Трек 55  точность не определена (достоверность 1)  [5CC4C58E], AccurateRip вернул [F1E86834]  (AR v2)
Трек 56  точность не определена (достоверность 1)  [3E102777], AccurateRip вернул [AB1384E8]  (AR v2)
Трек 57  точность не определена (достоверность 1)  [E35A42CC], AccurateRip вернул [EACD8C86]  (AR v2)
Трек 58  точность не определена (достоверность 1)  [6111E7CA], AccurateRip вернул [2799E5EC]  (AR v2)
Трек 59  точность не определена (достоверность 1)  [F0A5E407], AccurateRip вернул [7A8A3D74]  (AR v2)
Трек 60  точность не определена (достоверность 1)  [06A1EA44], AccurateRip вернул [C7AF11D5]  (AR v2)
Трек 61  точность не определена (достоверность 1)  [24F2C76F], AccurateRip вернул [CBAD753B]  (AR v2)
Трек 62  точность не определена (достоверность 1)  [B78D621B], AccurateRip вернул [946AFC51]  (AR v2)
Трек 63  точность не определена (достоверность 1)  [68182C90], AccurateRip вернул [3518141B]  (AR v2)
Трек 64  точность не определена (достоверность 1)  [23870EA9], AccurateRip вернул [61D504D0]  (AR v2)
Трек 65  точность не определена (достоверность 1)  [8903A756], AccurateRip вернул [CB5316CF]  (AR v2)
Трек 66  точность не определена (достоверность 1)  [D53D1CEE], AccurateRip вернул [A825279A]  (AR v2)
Трек 67  точность не определена (достоверность 1)  [F217459C], AccurateRip вернул [F7F849BD]  (AR v2)
Трек 68  точность не определена (достоверность 1)  [9BC320BD], AccurateRip вернул [CA499349]  (AR v2)
Трек 69  точность не определена (достоверность 1)  [16B3C274], AccurateRip вернул [4F7FAF6E]  (AR v2)
Трек 70  точность не определена (достоверность 1)  [CA60D02F], AccurateRip вернул [03CE281F]  (AR v2)
Трек 71  точность не определена (достоверность 1)  [3D5DE55E], AccurateRip вернул [0A3FDA7D]  (AR v2)
Трек 72  точность не определена (достоверность 1)  [56BD3C82], AccurateRip вернул [9A613D87]  (AR v2)
Трек 73  точность не определена (достоверность 1)  [565D41D8], AccurateRip вернул [CECFD3EF]  (AR v2)
Трек 74  точность не определена (достоверность 1)  [B70F1B55], AccurateRip вернул [456B2AB4]  (AR v2)
Трек 75  точность не определена (достоверность 1)  [07ED56BA], AccurateRip вернул [EAC4DFD7]  (AR v2)
Трек 76  точность не определена (достоверность 1)  [94F66EE4], AccurateRip вернул [2C5E88D6]  (AR v2)
Ни один трек не прошёл проверки на точность
В вашей базе может быть иной вариант штамповки диска
Конец отчёта
==== Контрольная сумма отчёта A2F799F044A4025F5CDCF1F9E10DD6A97CD49E8EAAAF0912AABA74D1251146B0 ====
Код:
REM GENRE "Non-Stop Mix"
REM DATE 2000
REM DISCID 8911464C
REM COMMENT "ExactAudioCopy v1.0b3"
PERFORMER "Various Artists"
TITLE "VIVA BEST OF MIX  # 5"
FILE "Various Artists - VIVA BEST OF MIX  # 5.flac" WAVE
  TRACK 01 AUDIO
    TITLE "Track01"
    PERFORMER "INTRO"
    INDEX 01 00:00:00
  TRACK 02 AUDIO
    TITLE "Track02"
    PERFORMER "HAMPTON THE HAMPSTER - hamster song"
    INDEX 01 01:01:37
  TRACK 03 AUDIO
    TITLE "Track03"
    PERFORMER "A.B.A. - like a butterfly"
    INDEX 01 01:47:05
  TRACK 04 AUDIO
    TITLE "Track04"
    PERFORMER "MODERN TALKING - don't take away my heart"
    INDEX 01 03:09:72
  TRACK 05 AUDIO
    TITLE "Track05"
    PERFORMER "DJ MAUI - feel the beat"
    INDEX 01 04:25:02
  TRACK 06 AUDIO
    TITLE "Track06"
    PERFORMER "PAPS N SKAR - turn around"
    INDEX 01 05:46:17
  TRACK 07 AUDIO
    TITLE "Track07"
    PERFORMER "MARY C. - Bang Bang Bang"
    INDEX 01 06:57:61
  TRACK 08 AUDIO
    TITLE "Track08"
    PERFORMER "AQUAGEN - Pargalarm"
    INDEX 01 07:56:65
  TRACK 09 AUDIO
    TITLE "Track09"
    PERFORMER "TANTRA - Weekend"
    INDEX 01 08:38:07
  TRACK 10 AUDIO
    TITLE "Track10"
    PERFORMER "TRIPLE B - All n DJ"
    INDEX 01 09:50:71
  TRACK 11 AUDIO
    TITLE "Track11"
    PERFORMER "DJ TAYLOR & FLOW - Exzess"
    INDEX 01 10:55:50
  TRACK 12 AUDIO
    TITLE "Track12"
    PERFORMER "FRAGMA - Toca Mirade"
    INDEX 01 12:32:68
  TRACK 13 AUDIO
    TITLE "Track13"
    PERFORMER "WEB - Lovin Times"
    INDEX 01 13:40:19
  TRACK 14 AUDIO
    TITLE "Track14"
    PERFORMER "WILLIAM ORBIT - Ravel's Pavane Pour Une Enfante"
    INDEX 01 14:50:25
  TRACK 15 AUDIO
    TITLE "Track15"
    PERFORMER "DUNE - Heaven"
    INDEX 01 15:53:13
  TRACK 16 AUDIO
    TITLE "Track16"
    PERFORMER "A SEVEN - Piece Of Heaven"
    INDEX 01 16:35:53
  TRACK 17 AUDIO
    TITLE "Track17"
    PERFORMER "KEN LASZLO MEETS MORGANA - Maybe A Lonely Night"
    INDEX 01 17:03:04
  TRACK 18 AUDIO
    TITLE "Track18"
    PERFORMER "QU-ZAR - Hypnotize"
    INDEX 01 18:27:38
  TRACK 19 AUDIO
    TITLE "Track19"
    PERFORMER "PAUL VAN DYK feat. SL ETIENNE - Tell Me Why"
    INDEX 01 19:37:43
  TRACK 20 AUDIO
    TITLE "Track20"
    PERFORMER "HYPERTRAXX - The Darkside"
    INDEX 01 20:32:67
  TRACK 21 AUDIO
    TITLE "Track21"
    PERFORMER "KOSMONOVA - Danse Avec Moi"
    INDEX 01 22:03:25
  TRACK 22 AUDIO
    TITLE "Track22"
    PERFORMER "FRESH AFFAIR - Do What You Like"
    INDEX 01 22:59:01
  TRACK 23 AUDIO
    TITLE "Track23"
    PERFORMER " FRESH AFFAIR - Do What You Like"
    INDEX 01 24:25:25
  TRACK 24 AUDIO
    TITLE "Track24"
    PERFORMER "MORE - Around The World"
    INDEX 01 25:39:71
  TRACK 25 AUDIO
    TITLE "Track25"
    PERFORMER "KIM LUCAS - Let It Be The Night"
    INDEX 01 27:07:23
  TRACK 26 AUDIO
    TITLE "Track26"
    PERFORMER "WHIGFIELD - Des Whap"
    INDEX 01 28:10:05
  TRACK 27 AUDIO
    TITLE "Track27"
    PERFORMER "DARIO - G. - Voices"
    INDEX 01 29:24:69
  TRACK 28 AUDIO
    TITLE "Track28"
    PERFORMER "WESTBAM - Love Bass"
    INDEX 01 30:09:55
  TRACK 29 AUDIO
    TITLE "Track29"
    PERFORMER "AQUA - Around The World"
    INDEX 01 31:11:33
  TRACK 30 AUDIO
    TITLE "Track30"
    PERFORMER "A-TEENS - Gimme! Gimme! Gimme!"
    INDEX 01 32:32:15
  TRACK 31 AUDIO
    TITLE "Track31"
    PERFORMER "EIFFEL 65 - My Console"
    INDEX 01 33:49:51
  TRACK 32 AUDIO
    TITLE "Track32"
    PERFORMER "MUMM vs. DHANY - I Wanna Be Free"
    INDEX 01 35:15:28
  TRACK 33 AUDIO
    TITLE "Track33"
    PERFORMER "QUIK feat. CHARLOTTE - Need You Tonite"
    INDEX 01 36:43:25
  TRACK 34 AUDIO
    TITLE "Track34"
    PERFORMER "ASIRA - Mama"
    INDEX 01 37:35:10
  TRACK 35 AUDIO
    TITLE "Track35"
    PERFORMER "SYSTEM F - Cry"
    INDEX 01 38:47:34
  TRACK 36 AUDIO
    TITLE "Track36"
    PERFORMER "WOODY VAN EYDEN - Feels Like Flyin'"
    INDEX 01 40:56:12
  TRACK 37 AUDIO
    TITLE "Track37"
    PERFORMER "HOOLIGAN - The Culture"
    INDEX 01 41:38:29
  TRACK 38 AUDIO
    TITLE "Track38"
    PERFORMER "MISS PEPPERMINT - Day By Day"
    INDEX 01 42:06:40
  TRACK 39 AUDIO
    TITLE "Track39"
    PERFORMER "MASTERBOY - Feel The Beat 2000"
    INDEX 01 43:23:71
  TRACK 40 AUDIO
    TITLE "Track40"
    PERFORMER "DJ ALIGATOR PROJECT - The Whistle Song"
    INDEX 01 44:34:32
  TRACK 41 AUDIO
    TITLE "Track41"
    PERFORMER "HAMPTON THE HAMPSTER - Hasmer Song"
    INDEX 01 45:04:01
  TRACK 42 AUDIO
    TITLE "Track42"
    PERFORMER "SUCO E SOL - Gitare"
    INDEX 01 46:15:45
  TRACK 43 AUDIO
    TITLE "Track43"
    PERFORMER "SIGUE SIGUE SPUTNIK - Love Missile 11-11"
    INDEX 01 47:12:48
  TRACK 44 AUDIO
    TITLE "Track44"
    PERFORMER "AQUAGEN - Partyalarm"
    INDEX 01 48:45:64
  TRACK 45 AUDIO
    TITLE "Track45"
    PERFORMER "AVANCADA - Dirty Bitch"
    INDEX 01 49:20:31
  TRACK 46 AUDIO
    TITLE "Track46"
    PERFORMER "SISQo - Thong Song"
    INDEX 01 49:34:17
  TRACK 47 AUDIO
    TITLE "Track47"
    PERFORMER "PASSION FRUIT - Wonderland"
    INDEX 01 51:09:04
  TRACK 48 AUDIO
    TITLE "Track48"
    PERFORMER " MOORHUHN feat. WIGALD BONING - Moorhuhn"
    INDEX 01 52:00:27
  TRACK 49 AUDIO
    TITLE "Track49"
    PERFORMER "LAYTON & STONE - Feel It"
    INDEX 01 53:18:12
  TRACK 50 AUDIO
    TITLE "Track50"
    PERFORMER "BARBARA TUCKER - Stop Playing With My Mind"
    INDEX 01 54:03:63
  TRACK 51 AUDIO
    TITLE "Track51"
    PERFORMER "SUPERFUNK feat. RON CARROLL - Lucky Guy"
    INDEX 01 54:34:07
  TRACK 52 AUDIO
    TITLE "Track52"
    PERFORMER "GLORIA GAYNOR - Last Night"
    INDEX 01 55:33:74
  TRACK 53 AUDIO
    TITLE "Track53"
    PERFORMER "WISOOME - Off The Wall"
    INDEX 01 56:27:24
  TRACK 54 AUDIO
    TITLE "Track54"
    PERFORMER "DJ JEAN - Love Come Home"
    INDEX 01 57:11:28
  TRACK 55 AUDIO
    TITLE "Track55"
    PERFORMER " LARA FABIAN - I Will Love Again"
    INDEX 01 58:11:59
  TRACK 56 AUDIO
    TITLE "Track56"
    PERFORMER "JOHN DAVIS - I Promised Myself"
    INDEX 01 59:32:44
  TRACK 57 AUDIO
    TITLE "Track57"
    PERFORMER "SM TRAX - At The Dub"
    INDEX 01 60:03:37
  TRACK 58 AUDIO
    TITLE "Track58"
    PERFORMER "BOMFUNK MC'S - Freestyler"
    INDEX 01 60:48:21
  TRACK 59 AUDIO
    TITLE "Track59"
    PERFORMER "MAMU CHAO - Bong Bong"
    INDEX 01 61:35:55
  TRACK 60 AUDIO
    TITLE "Track60"
    PERFORMER "TQ - Daily"
    INDEX 01 62:33:59
  TRACK 61 AUDIO
    TITLE "Track61"
    PERFORMER " TONY BRAXTON - He Wasn't Man Enought"
    INDEX 01 63:18:28
  TRACK 62 AUDIO
    TITLE "Track62"
    PERFORMER "FOUR COLOURZ - abcd"
    INDEX 01 64:21:52
  TRACK 63 AUDIO
    TITLE "Track63"
    PERFORMER "MARVIN MC KAY feat. SEVEN - Ohne Dich"
    INDEX 01 64:45:69
  TRACK 64 AUDIO
    TITLE "Track64"
    PERFORMER "ALEKSEY - Wen Soll Ich Furchten"
    INDEX 01 65:11:42
  TRACK 65 AUDIO
    TITLE "Track65"
    PERFORMER "LIL' CEASE - Play Around"
    INDEX 01 65:32:61
  TRACK 66 AUDIO
    TITLE "Track66"
    PERFORMER "BRITNEY SPEARS - oops! i did it again"
    INDEX 01 65:53:24
  TRACK 67 AUDIO
    TITLE "Track67"
    PERFORMER "EN VOGUE - Riddle"
    INDEX 01 66:53:70
  TRACK 68 AUDIO
    TITLE "Track68"
    PERFORMER " SASHA - Let Me Be The On"
    INDEX 01 67:13:62
  TRACK 69 AUDIO
    TITLE "Track69"
    PERFORMER " T-ONE - Tom's Diner 2000"
    INDEX 01 68:15:01
  TRACK 70 AUDIO
    TITLE "Track70"
    PERFORMER "MONTELL JORDAN - Get It On Tonight"
    INDEX 01 68:43:63
  TRACK 71 AUDIO
    TITLE "Track71"
    PERFORMER " MANDY MOORE - Candy"
    INDEX 01 69:22:72
  TRACK 72 AUDIO
    TITLE "Track72"
    PERFORMER " DIE 3 GENERATION - Leb"
    INDEX 01 70:02:17
  TRACK 73 AUDIO
    TITLE "Track73"
    PERFORMER "SONNY JONES feat. TARA CHASE - Follow Me"
    INDEX 01 70:44:71
  TRACK 74 AUDIO
    TITLE "Track74"
    PERFORMER "JON SECADA - Stop"
    INDEX 01 71:40:67
  TRACK 75 AUDIO
    TITLE "Track75"
    PERFORMER "SNAP! - Gimme A Trill"
    INDEX 01 72:16:73
  TRACK 76 AUDIO
    TITLE "Track76"
    PERFORMER "BACKSTREET BOYS - The One "
    INDEX 01 72:44:05
VIVA Best Of Mix #6
Мои Italo-Disco-House (lossless) , Automatic D.J. Service Мои Eurodance - Euro-House (lossless)
Правила, инструкции, FAQ!!!
Торрент  Добавлен [23 май 2019, 20:02] Скачать торрент Магнет ссылка
Скачать торрент
[ Размер 12.5 КБ / Просмотров 3 ]

Статус
Проверен 
 
Размер  586.21 МБ
Приватный: Нет (DHT включён)
.torrent скачан  0
Как залить торрент? | Как скачать Torrent? | Ошибка в торренте? Качайте магнет  


     Отправить личное сообщение
   
Страница 1 из 1
Показать сообщения за:  Поле сортировки  
Начать новую тему Ответить на тему


Сейчас этот форум просматривают: нет зарегистрированных пользователей и гости: 0


Вы не можете начинать темы
Вы не можете отвечать на сообщения
Вы не можете редактировать свои сообщения
Вы не можете удалять свои сообщения
Вы не можете добавлять вложения

Перейти:  
Ресурс не предоставляет электронные версии произведений, а занимается лишь коллекционированием и каталогизацией ссылок, присылаемых и публикуемых на форуме нашими читателями. Если вы являетесь правообладателем какого-либо представленного материала и не желаете чтобы ссылка на него находилась в нашем каталоге, свяжитесь с нами и мы незамедлительно удалим её. Файлы для обмена на трекере предоставлены пользователями сайта, и администрация не несёт ответственности за их содержание. Просьба не заливать файлы, защищенные авторскими правами, а также файлы нелегального содержания!
cron