Начать новую тему Ответить на тему
Статистика раздачи
Размер: 275.66 МБ | Добавлен: 23 май 2019, 20:02 | Скачали: 0
Сидеров: 0  [0 байт/сек]    Личеров: 0  [0 байт/сек]
Пред. тема | След. тема 

Автор
Сообщение

СообщениеДобавлено: 23 май 2019, 20:02 

Ответить с цитатой 

Mystic - Spirit Of Ibiza (CDM)
Жанр: Eurodance
Страна-производитель диска: Germany
Год издания диска: 1995
Издатель (лейбл): Chocolate Records
Номер по каталогу: 0048155CHO
Аудиокодек: FLAC (*.flac)
Тип рипа: image+.cue
Битрейт аудио: lossless
Продолжительность: 00:30:12
Источник (релизер): собственный рип
Наличие сканов в содержимом раздачи: да
Треклист:
1 Spirit Of Ibiza (Radio Version) 3:49
2 Spirit Of Ibiza (Extended Version) 6:52
3 Spirit Of Ibiza (TNT Mix) 5:29
4 Spirit Of Ibiza (St. Antonio Mix) 6:37
5 Spirit Of Ibiza (Instrumental) 7:14
Код:
Exact Audio Copy V0.99 prebeta 5 from 4. May 2009
Отчёт EAC об извлечении, выполненном 24. сентября 2011, 21:47
Mystic / Spirit Of Ibiza
Дисковод: PHILIPS DVDR1660P1   Adapter: 1  ID: 1
Режим чтения                 : Достоверность
Использование точного потока : Да
Отключение кэша аудио        : Да
Использование указателей C2  : Нет
Коррекция смещения при чтении                     : 618
Способность читать области Lead-in и Lead-out     : Нет
Заполнение пропущенных сэмплов тишиной            : Да
Удаление блоков с тишиной в начале и конце        : Нет
При вычислениях CRC использовались нулевые сэмплы : Да
Интерфейс                                         : Встроенный Win32-интерфейс для Win NT/2000
Выходной формат : Внутренние WAV-операции
Формат сэмплов  : 44.100 Гц; 16 бит; стерео
TOC извлечённого CD
     Трек |   Старт  | Длительность | Начальный сектор | Конечный сектор
    ---------------------------------------------------------------------
       1  |  0:00.00 |    3:52.35   |           0      |      17434
       2  |  3:52.35 |    6:53.25   |       17435      |      48434
       3  | 10:45.60 |    5:31.47   |       48435      |      73306
       4  | 16:17.32 |    6:39.65   |       73307      |     103296
       5  | 22:57.22 |    7:14.65   |      103297      |     135911
Характеристики диапазона извлечения и сообщения об ошибках
Выбранный диапазон
     Имя файла F:\Downloads\Mystic - Spirit Of Ibiza (CDM-1995-Flac)\Mystic - Spirit Of Ibiza.wav
     Пиковый уровень 96.3 %
     Качество диапазона 100.0 %
     CRC теста BC2C1C8E
     CRC копии BC2C1C8E
     Копирование... OK
Ошибок не произошло
AccurateRip: сводка
Трек  1  точное извлечение (доверие 1)  [BEE9588D]
Трек  2  точное извлечение (доверие 1)  [5E0E4155]
Трек  3  точное извлечение (доверие 1)  [065BF098]
Трек  4  точное извлечение (доверие 1)  [2EE48CDC]
Трек  5  точное извлечение (доверие 1)  [D2423584]
Все треки извлечены точно
Конец отчёта

Доп. информация: Рип мой,с оригинального диска из моей коллекции.Сканы обложки и диска внутри торрeнта (600 dpi,PNG).Приятного прослушивания!
Правила, инструкции, FAQ!!!
Торрент  Добавлен [23 май 2019, 20:02] Скачать торрент Магнет ссылка
Скачать торрент
[ Размер 11.61 КБ / Просмотров 4 ]

Статус
Проверен 
 
Размер  275.66 МБ
Приватный: Нет (DHT включён)
.torrent скачан  0
Как залить торрент? | Как скачать Torrent? | Ошибка в торренте? Качайте магнет  


     Отправить личное сообщение
   
Страница 1 из 1
Показать сообщения за:  Поле сортировки  
Начать новую тему Ответить на тему


Сейчас этот форум просматривают: нет зарегистрированных пользователей и гости: 0


Вы не можете начинать темы
Вы не можете отвечать на сообщения
Вы не можете редактировать свои сообщения
Вы не можете удалять свои сообщения
Вы не можете добавлять вложения

Перейти:  
Ресурс не предоставляет электронные версии произведений, а занимается лишь коллекционированием и каталогизацией ссылок, присылаемых и публикуемых на форуме нашими читателями. Если вы являетесь правообладателем какого-либо представленного материала и не желаете чтобы ссылка на него находилась в нашем каталоге, свяжитесь с нами и мы незамедлительно удалим её. Файлы для обмена на трекере предоставлены пользователями сайта, и администрация не несёт ответственности за их содержание. Просьба не заливать файлы, защищенные авторскими правами, а также файлы нелегального содержания!
cron