Начать новую тему Ответить на тему
Статистика раздачи
Размер: 158.92 МБ | Добавлен: 23 май 2019, 20:01 | Скачали: 0
Сидеров: 0  [0 байт/сек]    Личеров: 0  [0 байт/сек]
Пред. тема | След. тема 

Автор
Сообщение

СообщениеДобавлено: 23 май 2019, 20:01 

Ответить с цитатой 

Go! - Let's All Chant (Remixes) (CDM)
Жанр: Eurodance
Год выпуска диска: 1994
Производитель диска: Germany Phonogram 866 841-2
Аудио кодек: FLAC
Тип рипа: image+.cue
Битрейт аудио: lossless
Продолжительность: 19:28
Трэклист:
01. Let's All Chant (Happy Radio Remix) 3:13
02. Let's All Chant (Happy Club Remix) 5:12
03. Let's All Chant (Ambient Techno Remix) 5:17
04. Go! 5:34
Сканы Hi-Res внутри...
Exact Audio Copy V0.99 prebeta 5 from 4. May 2009
EAC extraction logfile from 7. December 2009, 18:55
Go! / Let's All Chant (Remixes)
Used drive : _NEC DVD_RW ND-4571A Adapter: 0 ID: 2
Read mode : Secure
Utilize accurate stream : Yes
Defeat audio cache : Yes
Make use of C2 pointers : No
Read offset correction : 48
Overread into Lead-In and Lead-Out : No
Fill up missing offset samples with silence : Yes
Delete leading and trailing silent blocks : No
Null samples used in CRC calculations : Yes
Used interface : Native Win32 interface for Win NT & 2000
Used output format : User Defined Encoder
Selected bitrate : 768 kBit/s
Quality : High
Add ID3 tag : No
Command line compressor : C:\Program Files\Exact Audio Copy\FLAC\FLAC.EXE
Additional command line options : -6 -V -T "ARTIST=%a" -T "TITLE=%t" -T "ALBUM=%g" -T "DATE=%y" -T "TRACKNUMBER=%n" -T "GENRE=%m" -T "COMMENT=%e" %s -o %d
TOC of the extracted CD
Track | Start | Length | Start sector | End sector
---------------------------------------------------------
1 | 0:00.32 | 3:17.00 | 32 | 14806
2 | 3:17.32 | 5:12.00 | 14807 | 38206
3 | 8:29.32 | 5:23.00 | 38207 | 62431
4 | 13:52.32 | 5:36.00 | 62432 | 87631
Range status and errors
Selected range
Filename M:\Свои\Go! - 1994 - Let's All Chant (Remixes) (CDM).wav
Peak level 97.6 %
Range quality 100.0 %
Test CRC 0BB07C17
Copy CRC 0BB07C17
Copy OK
No errors occurred
AccurateRip summary
Track 1 not present in database
Track 2 not present in database
Track 3 not present in database
Track 4 not present in database
None of the tracks are present in the AccurateRip database
End of status report
Правила, инструкции, FAQ!!!
Торрент  Добавлен [23 май 2019, 20:01] Скачать торрент Магнет ссылка
Скачать торрент
[ Размер 13.23 КБ / Просмотров 3 ]

Статус
Проверен 
 
Размер  158.92 МБ
Приватный: Нет (DHT включён)
.torrent скачан  0
Как залить торрент? | Как скачать Torrent? | Ошибка в торренте? Качайте магнет  


     Отправить личное сообщение
   
Страница 1 из 1
Показать сообщения за:  Поле сортировки  
Начать новую тему Ответить на тему


Сейчас этот форум просматривают: нет зарегистрированных пользователей и гости: 0


Вы не можете начинать темы
Вы не можете отвечать на сообщения
Вы не можете редактировать свои сообщения
Вы не можете удалять свои сообщения
Вы не можете добавлять вложения

Перейти:  
Ресурс не предоставляет электронные версии произведений, а занимается лишь коллекционированием и каталогизацией ссылок, присылаемых и публикуемых на форуме нашими читателями. Если вы являетесь правообладателем какого-либо представленного материала и не желаете чтобы ссылка на него находилась в нашем каталоге, свяжитесь с нами и мы незамедлительно удалим её. Файлы для обмена на трекере предоставлены пользователями сайта, и администрация не несёт ответственности за их содержание. Просьба не заливать файлы, защищенные авторскими правами, а также файлы нелегального содержания!
cron