Начать новую тему Ответить на тему
Статистика раздачи
Размер: 191.29 МБ | Добавлен: 23 май 2019, 20:02 | Скачали: 0
Сидеров: 0  [0 байт/сек]    Личеров: 0  [0 байт/сек]
Пред. тема | След. тема 

Автор
Сообщение

СообщениеДобавлено: 23 май 2019, 20:02 

Ответить с цитатой 

Po.Lo / I Want You
Жанр: Eurodance, Italodance
Страна-производитель диска: Италия
Год издания: 1995
Издатель (лейбл): DWA
Номер по каталогу: DWA 01.69
Страна: Италия
Аудиокодек: FLAC (*.flac)
Тип рипа: image+.cue
Битрейт аудио: lossless
Продолжительность: 00:19:20
Источник (релизер): Я / рип с моего диска
Наличие сканов в содержимом раздачи: да
Треклист:
1. I Want You (Radio Mix)
2. I Want You (Extended Mix)
3. I Want You (I Need Your Smile Mix)
4. I Want You (Acapella)
Код:
X Lossless Decoder version 20120908 (141.1)
XLD extraction logfile from 2012-09-14 00:29:19 +0200
Po.Lo / I Want You
Used drive : MATSHITA DVD-R   UJ-898 (revision HE13)
Ripper mode             : XLD Secure Ripper
Disable audio cache     : OK for the drive with a cache less than 1375KiB
Make use of C2 pointers : NO
Read offset correction  : 102
Max retry count         : 100
Gap status              : Analyzed, Appended
TOC of the extracted CD
     Track |   Start  |  Length  | Start sector | End sector
    ---------------------------------------------------------
        1  | 00:00:32 | 04:00:00 |        32    |    18031
        2  | 04:00:32 | 05:42:05 |     18032    |    43686
        3  | 09:42:37 | 05:47:63 |     43687    |    69774
        4  | 15:30:25 | 03:50:17 |     69775    |    87041
AccurateRip Summary (DiscID: 000355c8-000d733b-29048804)
    Track 01 : OK (v1, confidence 1/1)
    Track 02 : OK (v1, confidence 1/1)
    Track 03 : OK (v1, confidence 1/1)
    Track 04 : OK (v1, confidence 1/1)
        ->All tracks accurately ripped.
All Tracks
    Filename : I Want You.flac
    CRC32 hash               : 565E51BC
    CRC32 hash (skip zero)   : 6F4B9A34
    Statistics
        Read error                           : 0
        Jitter error (maybe fixed)           : 0
        Retry sector count                   : 0
        Damaged sector count                 : 0
Track 01
    Pre-gap length : 00:02:32
    CRC32 hash               : 8535BB40
    CRC32 hash (skip zero)   : 1CD0F1C6
    AccurateRip v1 signature : 18B5A3EE
    AccurateRip v2 signature : AD6EE4C8
        ->Accurately ripped (v1, confidence 1/1)
    Statistics
        Read error                           : 0
        Jitter error (maybe fixed)           : 0
        Retry sector count                   : 0
        Damaged sector count                 : 0
Track 02
    Pre-gap length : 00:06:57
    CRC32 hash               : 7D06DD4D
    CRC32 hash (skip zero)   : D788B32E
    AccurateRip v1 signature : E3E59259
    AccurateRip v2 signature : 28FD34EA
        ->Accurately ripped (v1, confidence 1/1)
    Statistics
        Read error                           : 0
        Jitter error (maybe fixed)           : 0
        Retry sector count                   : 0
        Damaged sector count                 : 0
Track 03
    Pre-gap length : 00:06:62
    CRC32 hash               : D628D7D5
    CRC32 hash (skip zero)   : FE426C53
    AccurateRip v1 signature : 90AAF542
    AccurateRip v2 signature : 3B2E6BB7
        ->Accurately ripped (v1, confidence 1/1)
    Statistics
        Read error                           : 0
        Jitter error (maybe fixed)           : 0
        Retry sector count                   : 0
        Damaged sector count                 : 0
Track 04
    Pre-gap length : 00:06:33
    CRC32 hash               : B083B9B4
    CRC32 hash (skip zero)   : 1365E95C
    AccurateRip v1 signature : CD310B7E
    AccurateRip v2 signature : 05369ABD
        ->Accurately ripped (v1, confidence 1/1)
    Statistics
        Read error                           : 0
        Jitter error (maybe fixed)           : 0
        Retry sector count                   : 0
        Damaged sector count                 : 0
No errors occurred
End of status report
Код:
TITLE "I Want You"
PERFORMER "Po.Lo"
REM GENRE "Eurodance"
REM DATE "1995-07-25T08:00:00Z"
REM DISCNUMBER 1
REM TOTALDISCS 1
REM DISCID 29048804
FILE "I Want You.flac" WAVE
  TRACK 01 AUDIO
    TITLE "I Want You (Radio Mix)"
    PERFORMER "Po.Lo"
    SONGWRITER "Francesco Alberti, Fabio Renato Sarni, Luca Valeri & Laurent N'Diaye"
    INDEX 00 00:00:00
    INDEX 01 00:00:32
  TRACK 02 AUDIO
    TITLE "I Want You (Extended Mix)"
    PERFORMER "Po.Lo"
    SONGWRITER "Francesco Alberti, Fabio Renato Sarni, Luca Valeri & Laurent N'Diaye"
    INDEX 00 03:53:50
    INDEX 01 04:00:32
  TRACK 03 AUDIO
    TITLE "I Want You (I Need Your Smile Mix)"
    PERFORMER "Po.Lo"
    SONGWRITER "Francesco Alberti, Fabio Renato Sarni, Luca Valeri & Laurent N'Diaye"
    INDEX 00 09:35:50
    INDEX 01 09:42:37
  TRACK 04 AUDIO
    TITLE "I Want You (Acapella)"
    PERFORMER "Po.Lo"
    SONGWRITER "Francesco Alberti, Fabio Renato Sarni, Luca Valeri & Laurent N'Diaye"
    INDEX 00 15:23:67
    INDEX 01 15:30:25
Правила, инструкции, FAQ!!!
Торрент  Добавлен [23 май 2019, 20:02] Скачать торрент Магнет ссылка
Скачать торрент
[ Размер 15.75 КБ / Просмотров 5 ]

Статус
Проверен 
 
Размер  191.29 МБ
Приватный: Нет (DHT включён)
.torrent скачан  0
Как залить торрент? | Как скачать Torrent? | Ошибка в торренте? Качайте магнет  


     Отправить личное сообщение
   
Страница 1 из 1
Показать сообщения за:  Поле сортировки  
Начать новую тему Ответить на тему


Сейчас этот форум просматривают: нет зарегистрированных пользователей и гости: 0


Вы не можете начинать темы
Вы не можете отвечать на сообщения
Вы не можете редактировать свои сообщения
Вы не можете удалять свои сообщения
Вы не можете добавлять вложения

Перейти:  
Ресурс не предоставляет электронные версии произведений, а занимается лишь коллекционированием и каталогизацией ссылок, присылаемых и публикуемых на форуме нашими читателями. Если вы являетесь правообладателем какого-либо представленного материала и не желаете чтобы ссылка на него находилась в нашем каталоге, свяжитесь с нами и мы незамедлительно удалим её. Файлы для обмена на трекере предоставлены пользователями сайта, и администрация не несёт ответственности за их содержание. Просьба не заливать файлы, защищенные авторскими правами, а также файлы нелегального содержания!
cron