Начать новую тему Ответить на тему
Статистика раздачи
Размер: 174.45 МБ | Добавлен: 23 май 2019, 20:07 | Скачали: 0
Сидеров: 0  [0 байт/сек]    Личеров: 0  [0 байт/сек]
Пред. тема | След. тема 

Автор
Сообщение

СообщениеДобавлено: 23 май 2019, 20:07 

Ответить с цитатой 

Orpheo / Put Your Trust in the Lord
Жангр: Eurodance
Страна-производитель диска: Швеция
Год издания: 1998
Издатель (лейбл): Remixed Records
Номер по каталогу: RRCDM130
Страна: Германия
Аудиокодек: FLAC (*.flac)
Тип рипа: image+.cue
Битрейт аудио: lossless
Продолжительность: 00:19:43
Источник (релизер): Собственный рип
Наличие сканов в содержимом раздачи: да (PNG 600 DPI)
Треклист:
1. Put Your Trust in the Lord (Radio Mix)
2. Put Your Trust in the Lord (Extended Mix)
3. Put Your Trust in the Lord (Massive Mix)
4. Put Your Trust in the Lord (Instrumental)
Код:
X Lossless Decoder version 20130127 (142.3)
XLD extraction logfile from 2013-02-10 05:26:09 +0100
Orpheo / Put Your Trust in the Lord
Used drive : MATSHITA DVD-R   UJ-898 (revision HE13)
Media type : Pressed CD
Ripper mode             : XLD Secure Ripper
Disable audio cache     : OK for the drive with a cache less than 1375KiB
Make use of C2 pointers : NO
Read offset correction  : 102
Max retry count         : 100
Gap status              : Analyzed, Appended
TOC of the extracted CD
     Track |   Start  |  Length  | Start sector | End sector
    ---------------------------------------------------------
        1  | 00:00:00 | 04:01:73 |         0    |    18147
        2  | 04:01:73 | 05:42:05 |     18148    |    43802
        3  | 09:44:03 | 05:51:03 |     43803    |    70130
        4  | 15:35:06 | 04:08:07 |     70131    |    88737
        5  | 22:15:13 | 43:17:39 |    100138    |   294951
AccurateRip Summary
    Disc not found in AccurateRip DB.
All Tracks
    Filename : Put Your Trust in the Lord.flac
    CRC32 hash (test run)    : ED4066DB
    CRC32 hash               : ED4066DB
    CRC32 hash (skip zero)   : 6A9475F2
    Statistics
        Read error                           : 0
        Jitter error (maybe fixed)           : 0
        Retry sector count                   : 0
        Damaged sector count                 : 0
Track 01
    Pre-gap length : 00:02:00
    CRC32 hash (test run)    : F4F1D3DA
    CRC32 hash               : F4F1D3DA
    CRC32 hash (skip zero)   : 6E729BBE
    AccurateRip v1 signature : CF06F560
    AccurateRip v2 signature : 1319D169
        ->Track not present in AccurateRip database.
    Statistics
        Read error                           : 0
        Jitter error (maybe fixed)           : 0
        Retry sector count                   : 0
        Damaged sector count                 : 0
Track 02
    Pre-gap length : 00:02:00
    CRC32 hash (test run)    : 00913DC1
    CRC32 hash               : 00913DC1
    CRC32 hash (skip zero)   : C5F45F94
    AccurateRip v1 signature : 0FDFE099
    AccurateRip v2 signature : 9F0238C4
        ->Track not present in AccurateRip database.
    Statistics
        Read error                           : 0
        Jitter error (maybe fixed)           : 0
        Retry sector count                   : 0
        Damaged sector count                 : 0
Track 03
    Pre-gap length : 00:02:00
    CRC32 hash (test run)    : CF08FCF9
    CRC32 hash               : CF08FCF9
    CRC32 hash (skip zero)   : 1E0E092D
    AccurateRip v1 signature : 531A2651
    AccurateRip v2 signature : 7F230C13
        ->Track not present in AccurateRip database.
    Statistics
        Read error                           : 0
        Jitter error (maybe fixed)           : 0
        Retry sector count                   : 0
        Damaged sector count                 : 0
Track 04
    Pre-gap length : 00:02:00
    CRC32 hash (test run)    : C71F0C48
    CRC32 hash               : C71F0C48
    CRC32 hash (skip zero)   : 5BA9A8E7
    AccurateRip v1 signature : 7BF77899
    AccurateRip v2 signature : BBC77211
        ->Track not present in AccurateRip database.
    Statistics
        Read error                           : 0
        Jitter error (maybe fixed)           : 0
        Retry sector count                   : 0
        Damaged sector count                 : 0
No errors occurred
End of status report
Код:
TITLE "Put Your Trust in the Lord"
PERFORMER "Orpheo"
CATALOG 7320470013052
REM GENRE "Eurodance"
REM DATE "1998-03-24T00:00:00Z"
REM DISCNUMBER 1
REM TOTALDISCS 1
REM DISCID 3F0F5C05
FILE "Put Your Trust in the Lord.flac" WAVE
  TRACK 01 AUDIO
    TITLE "Put Your Trust in the Lord (Radio Mix)"
    PERFORMER "Orpheo"
    SONGWRITER "Camilla Hüther, Frank Meyer-Thurn, Klaus Kummer & Brian Cornell"
    INDEX 01 00:00:00
  TRACK 02 AUDIO
    TITLE "Put Your Trust in the Lord (Extended Mix)"
    PERFORMER "Orpheo"
    SONGWRITER "Camilla Hüther, Frank Meyer-Thurn, Klaus Kummer & Brian Cornell"
    INDEX 00 03:59:73
    INDEX 01 04:01:73
  TRACK 03 AUDIO
    TITLE "Put Your Trust in the Lord (Massive Mix)"
    PERFORMER "Orpheo"
    SONGWRITER "Camilla Hüther, Frank Meyer-Thurn, Klaus Kummer & Brian Cornell"
    INDEX 00 09:42:03
    INDEX 01 09:44:03
  TRACK 04 AUDIO
    TITLE "Put Your Trust in the Lord (Instrumental)"
    PERFORMER "Orpheo"
    SONGWRITER "Camilla Hüther, Frank Meyer-Thurn, Klaus Kummer & Brian Cornell"
    INDEX 00 15:33:06
    INDEX 01 15:35:06
Правила, инструкции, FAQ!!!
Торрент  Добавлен [23 май 2019, 20:07] Скачать торрент Магнет ссылка
Скачать торрент
[ Размер 14.53 КБ / Просмотров 3 ]

Статус
Проверен 
 
Размер  174.45 МБ
Приватный: Нет (DHT включён)
.torrent скачан  0
Как залить торрент? | Как скачать Torrent? | Ошибка в торренте? Качайте магнет  


     Отправить личное сообщение
   
Страница 1 из 1
Показать сообщения за:  Поле сортировки  
Начать новую тему Ответить на тему


Сейчас этот форум просматривают: нет зарегистрированных пользователей и гости: 0


Вы не можете начинать темы
Вы не можете отвечать на сообщения
Вы не можете редактировать свои сообщения
Вы не можете удалять свои сообщения
Вы не можете добавлять вложения

Перейти:  
Ресурс не предоставляет электронные версии произведений, а занимается лишь коллекционированием и каталогизацией ссылок, присылаемых и публикуемых на форуме нашими читателями. Если вы являетесь правообладателем какого-либо представленного материала и не желаете чтобы ссылка на него находилась в нашем каталоге, свяжитесь с нами и мы незамедлительно удалим её. Файлы для обмена на трекере предоставлены пользователями сайта, и администрация не несёт ответственности за их содержание. Просьба не заливать файлы, защищенные авторскими правами, а также файлы нелегального содержания!
cron