Начать новую тему Ответить на тему
Статистика раздачи
Размер: 359.75 МБ | Добавлен: 23 май 2019, 20:02 | Скачали: 0
Сидеров: 0  [0 байт/сек]    Личеров: 0  [0 байт/сек]
Пред. тема | След. тема 

Автор
Сообщение

СообщениеДобавлено: 23 май 2019, 20:02 

Ответить с цитатой 

Fargetta - You Got It!
Жанр: Eurodance
Год выпуска диска: 1997
Производитель диска: Italy - Label: Dance Factory
Аудио кодек: APE
Тип рипа: image+.cue
Битрейт аудио: lossless
Продолжительность: 53:38
Трэклист:
1 Mr. Movin' (3:55)
2 Midnight (3:17)
3 The Music Is Movin' (3:46)
4 Burning Kisses (3:52)
5 Your Love (3:47)
6 Music (Music '97 Remix) (4:22)
7 Music Of Love (4:00)
8 This Time (Sexy Night) (4:06)
9 The Beat Of Green (3:39)
10 Emotions (3:57)
11 Fargetta Mixing For You (14:54)
Dj Mix [Megamix] - Fargetta
Код:
Exact Audio Copy V0.99 prebeta 4 from 23. January 2008
Отчёт EAC об извлечении, выполненном 31. марта 2009, 0:47
Fargetta / You Got It
Дисковод: PIONEER DVD-RW  DVR-112   Adapter: 0  ID: 1
Режим чтения                 : Достоверность
Использование точного потока : Да
Отключение кэша аудио        : Да
Использование указателей C2  : Нет
Коррекция смещения при чтении                     : 48
Способность читать области Lead-in и Lead-out     : Нет
Заполнение пропущенных сэмплов тишиной            : Да
Удаление блоков с тишиной в начале и конце        : Нет
При вычислениях CRC использовались нулевые сэмплы : Да
Интерфейс                                         : Встроенный Win32-интерфейс для Win NT/2000
Выходной формат : Внутренние WAV-операции
Формат сэмплов  : 44.100 Гц; 16 бит; стерео
TOC извлечённого CD
     Трек |   Старт  | Длительность | Начальный сектор | Конечный сектор
    ---------------------------------------------------------------------
       1  |  0:00.00 |    3:55.00   |           0      |      17624
       2  |  3:55.00 |    3:17.37   |       17625      |      32436
       3  |  7:12.37 |    3:46.70   |       32437      |      49456
       4  | 10:59.32 |    3:51.73   |       49457      |      66854
       5  | 14:51.30 |    3:47.10   |       66855      |      83889
       6  | 18:38.40 |    4:22.67   |       83890      |     103606
       7  | 23:01.32 |    4:00.58   |      103607      |     121664
       8  | 27:02.15 |    4:06.10   |      121665      |     140124
       9  | 31:08.25 |    3:39.12   |      140125      |     156561
      10  | 34:47.37 |    3:57.05   |      156562      |     174341
      11  | 38:44.42 |   14:54.25   |      174342      |     241416
Характеристики диапазона извлечения и сообщения об ошибках
Выбранный диапазон
     Имя файла M:\Torrents (for Upload)\Fargetta\Fargetta 1997 - You Got It!\Fargetta - You Got It.wav
     Пиковый уровень 93.3 %
     Качество диапазона 100.0 %
     CRC копии B185E2E2
     Копирование... OK
Ошибок не произошло
AccurateRip: сводка
Трек  1  нет в базе данных
Трек  2  нет в базе данных
Трек  3  нет в базе данных
Трек  4  нет в базе данных
Трек  5  нет в базе данных
Трек  6  нет в базе данных
Трек  7  нет в базе данных
Трек  8  нет в базе данных
Трек  9  нет в базе данных
Трек 10  нет в базе данных
Трек 11  нет в базе данных
Ни одного трека нет в базе AccurateRip
Конец отчёта
Правила, инструкции, FAQ!!!
Торрент  Добавлен [23 май 2019, 20:02] Скачать торрент Магнет ссылка
Скачать торрент
[ Размер 28.76 КБ / Просмотров 3 ]

Статус
Проверен 
 
Размер  359.75 МБ
Приватный: Нет (DHT включён)
.torrent скачан  0
Как залить торрент? | Как скачать Torrent? | Ошибка в торренте? Качайте магнет  


     Отправить личное сообщение
   
Страница 1 из 1
Показать сообщения за:  Поле сортировки  
Начать новую тему Ответить на тему


Сейчас этот форум просматривают: нет зарегистрированных пользователей и гости: 0


Вы не можете начинать темы
Вы не можете отвечать на сообщения
Вы не можете редактировать свои сообщения
Вы не можете удалять свои сообщения
Вы не можете добавлять вложения

Перейти:  
Ресурс не предоставляет электронные версии произведений, а занимается лишь коллекционированием и каталогизацией ссылок, присылаемых и публикуемых на форуме нашими читателями. Если вы являетесь правообладателем какого-либо представленного материала и не желаете чтобы ссылка на него находилась в нашем каталоге, свяжитесь с нами и мы незамедлительно удалим её. Файлы для обмена на трекере предоставлены пользователями сайта, и администрация не несёт ответственности за их содержание. Просьба не заливать файлы, защищенные авторскими правами, а также файлы нелегального содержания!
cron