Начать новую тему Ответить на тему
Статистика раздачи
Размер: 454.1 МБ | Добавлен: 23 май 2019, 20:04 | Скачали: 0
Сидеров: 0  [0 байт/сек]    Личеров: 0  [0 байт/сек]
Пред. тема | След. тема 

Автор
Сообщение

СообщениеДобавлено: 23 май 2019, 20:04 

Ответить с цитатой 

Various Artists - Eurozone Mix #2
Жанр: Eurodance, Eurohouse
Страна-производитель диска: Russia
Год издания диска: 2011
Издатель (лейбл): Unknown Russian Source Records
Номер по каталогу: URS.011
Аудио кодек: FLAC (*.flac)
Тип рипа: tracks+.cue
Битрейт аудио: lossless
Продолжительность: 68:24
Источник (релизер): EAC test© CDr диска из личной коллекции (divinyl)
Наличие сканов в содержимом раздачи: да
Доп. информация: DISCOGS
Треклист:
1. ALTMAN - Eurozone Mix #2 (Mega Version) (17:48)
2. VINYL Z - Eurozone Mix #2 (Special Guest Megamix) (18:01)
3. VINYL Z - Eurozone Mix #2 (Samples & FX2) (7:27)
4. ALTMAN - Eurozone Mix #2 (Samples & FX1) (6:48)
5. ALTMAN - Eurozone Mix #2 (Sunshine Version 'From December To June') (18:18)
1. ALTMAN - Eurozone Mix #2 (Mega Version) (17:48)
Whigfield "Think Of You"
Black Spaghetti "Fight For Your Right"
Loft "Hold On"
B.G. The Prince Of Rap "The Colour Of My Dreams"
Connie Nice "Dancing In The Night"
Stereotype "And The Beat Goes On"
Venus & Marc "Xummertime"
Da Blitz "Let Me Be"
Livin' Joy "Don't Stop Movin'"
Jesse Lee Davis "Round And Round"
2. VINYL Z - Eurozone Mix #2 (Special Guest Megamix) (18:01)
Whigfield "Think Of You"
Rama "Light My Fire"
X-Static "I'm Standing"
Pizzaman "Sex On The Streets"
Jesse Lee Davis "Round And Round"
2 Brothers On The 4th Floor "Never Alone"
Puma "Do It Right"
Ideal "Hot"
JK "My Radio"
Livin' Joy "Don't Stop Movin'"
2 Dance 2 "Feel The Rhythm"
Club Of 4 "Saxy Tune"
Da Blitz "Stay With Me"
Loft "Hold On"
The Boomshakers "Boom! Shake The Room"
B.G. The Prince Of Rap "The Colour Of My Dreams"
Le Click "Call Me"
3. VINYL Z - Eurozone Mix #2 (Samples & FX2) (7:27)
4. ALTMAN - Eurozone Mix #2 (Samples & FX1) (6:48)
5. ALTMAN - Eurozone Mix #2 (Sunshine Version 'From December To June') (18:18)
Код:
Exact Audio Copy V0.99 prebeta 5 from 4. May 2009
EAC extraction logfile from 13. July 2011, 16:40
Various / Eurozone Mix #2
Used drive  : PIONEER DVD-RW  DVR-112D   Adapter: 1  ID: 0
Read mode               : Secure
Utilize accurate stream : Yes
Defeat audio cache      : Yes
Make use of C2 pointers : No
Read offset correction                      : 48
Overread into Lead-In and Lead-Out          : No
Fill up missing offset samples with silence : Yes
Delete leading and trailing silent blocks   : No
Null samples used in CRC calculations       : Yes
Used interface                              : Installed external ASPI interface
Gap handling                                : Appended to previous track
Used output format              : User Defined Encoder
Selected bitrate                : 1024 kBit/s
Quality                         : High
Add ID3 tag                     : Yes
Command line compressor         : C:\Program Files\FLAC\flac.exe
Additional command line options : -6 -V -T "ARTIST=%a" -T "TITLE=%t" -T "ALBUM=%g" -T "DATE=%y" -T "TRACKNUMBER=%n" -T "GENRE=%m" -T "COMMENT=EAC FLAC -6" %s
TOC of the extracted CD
     Track |   Start  |  Length  | Start sector | End sector
    ---------------------------------------------------------
        1  |  0:00.00 | 17:50.03 |         0    |    80252
        2  | 17:50.03 | 18:03.05 |     80253    |   161482
        3  | 35:53.08 |  7:29.52 |    161483    |   195209
        4  | 43:22.60 |  6:50.16 |    195210    |   225975
        5  | 50:13.01 | 18:18.51 |    225976    |   308376
Track  1
     Filename F:\Various Artists - Eurozone Mix #2 (2011) [FLAC]\01. Altman - Eurozone Mix #2 (Mega Version).wav
     Pre-gap length  0:00:02.00
     Peak level 96.5 %
     Track quality 100.0 %
     Test CRC 8B55137E
     Copy CRC 8B55137E
     Copy OK
Track  2
     Filename F:\Various Artists - Eurozone Mix #2 (2011) [FLAC]\02. Vinyl Z - Eurozone Mix #2 (Special Guest Megamix).wav
     Pre-gap length  0:00:00.25
     Peak level 96.5 %
     Track quality 100.0 %
     Test CRC 6593102E
     Copy CRC 6593102E
     Copy OK
Track  3
     Filename F:\Various Artists - Eurozone Mix #2 (2011) [FLAC]\03. Vinyl Z - Eurozone Mix #2 (Samples & FX2).wav
     Peak level 96.5 %
     Track quality 100.0 %
     Test CRC 63DBC915
     Copy CRC 63DBC915
     Copy OK
Track  4
     Filename F:\Various Artists - Eurozone Mix #2 (2011) [FLAC]\04. Altman - Eurozone Mix #2 (Samples & FX1).wav
     Peak level 96.6 %
     Track quality 100.0 %
     Test CRC 5CBBDC55
     Copy CRC 5CBBDC55
     Copy OK
Track  5
     Filename F:\Various Artists - Eurozone Mix #2 (2011) [FLAC]\05. Altman - Eurozone Mix #2 (Sunshine Version).wav
     Peak level 96.5 %
     Track quality 100.0 %
     Test CRC 90507514
     Copy CRC 90507514
     Copy OK
No errors occurred
End of status report
Код:
REM GENRE Eurodance
REM DATE 2011
REM DISCID 2E100F05
REM COMMENT "ExactAudioCopy v0.99pb5"
PERFORMER "Various"
TITLE "Eurozone Mix #2"
FILE "01. Altman - Eurozone Mix #2 (Mega Version).flac" WAVE
  TRACK 01 AUDIO
    TITLE "Eurozone Mix #2 (Mega Version)"
    PERFORMER "Altman"
    INDEX 01 00:00:00
  TRACK 02 AUDIO
    TITLE "Eurozone Mix #2 (Special Guest Megamix)"
    PERFORMER "Vinyl Z"
    INDEX 00 17:49:53
FILE "02. Vinyl Z - Eurozone Mix #2 (Special Guest Megamix).flac" WAVE
    INDEX 01 00:00:00
FILE "03. Vinyl Z - Eurozone Mix #2 (Samples & FX2).flac" WAVE
  TRACK 03 AUDIO
    TITLE "Eurozone Mix #2 (Samples & FX2)"
    PERFORMER "Vinyl Z"
    INDEX 01 00:00:00
FILE "04. Altman - Eurozone Mix #2 (Samples & FX1).flac" WAVE
  TRACK 04 AUDIO
    TITLE "Eurozone Mix #2 (Samples & FX1)"
    PERFORMER "Altman"
    INDEX 01 00:00:00
FILE "05. Altman - Eurozone Mix #2 (Sunshine Version).flac" WAVE
  TRACK 05 AUDIO
    TITLE "Eurozone Mix #2 (Sunshine Version)"
    PERFORMER "Altman"
    INDEX 01 00:00:00

mp3 320kbps версия ЗДЕСЬ
Приятного прослушивания!
Правила, инструкции, FAQ!!!
Торрент  Добавлен [23 май 2019, 20:04] Скачать торрент Магнет ссылка
Скачать торрент
[ Размер 19.28 КБ / Просмотров 3 ]

Статус
Проверен 
 
Размер  454.1 МБ
Приватный: Нет (DHT включён)
.torrent скачан  0
Как залить торрент? | Как скачать Torrent? | Ошибка в торренте? Качайте магнет  


     Отправить личное сообщение
   
Страница 1 из 1
Показать сообщения за:  Поле сортировки  
Начать новую тему Ответить на тему


Сейчас этот форум просматривают: нет зарегистрированных пользователей и гости: 0


Вы не можете начинать темы
Вы не можете отвечать на сообщения
Вы не можете редактировать свои сообщения
Вы не можете удалять свои сообщения
Вы не можете добавлять вложения

Перейти:  
Ресурс не предоставляет электронные версии произведений, а занимается лишь коллекционированием и каталогизацией ссылок, присылаемых и публикуемых на форуме нашими читателями. Если вы являетесь правообладателем какого-либо представленного материала и не желаете чтобы ссылка на него находилась в нашем каталоге, свяжитесь с нами и мы незамедлительно удалим её. Файлы для обмена на трекере предоставлены пользователями сайта, и администрация не несёт ответственности за их содержание. Просьба не заливать файлы, защищенные авторскими правами, а также файлы нелегального содержания!
cron