Начать новую тему Ответить на тему
Статистика раздачи
Размер: 7.05 ГБ | Добавлен: 23 май 2019, 20:02 | Скачали: 0
Сидеров: 0  [0 байт/сек]    Личеров: 0  [0 байт/сек]
Пред. тема | След. тема 

Автор
Сообщение

СообщениеДобавлено: 23 май 2019, 20:02 

Ответить с цитатой 

Masterboy - Singles (35 CD)

Страна выпуска: Германия, Япония, Франция
Жанр: Eurodance/Euro-House
Годы выпуска: 1990-2003
Аудио кодек: FLAC
Тип рипа: image+.cue, tracks+.cue
Битрейт аудио: lossless
Продолжительность: 35 CD, 13:02:25
Описание: 35 синглов одной из самых известных Eurodance-групп Masterboy. В комплекте сканы всех обложек, постеров и дисков (JPG, PNG).
Мои благодарности: Тупая Обезьяна, lavteutas, mitja76, vova79, Random, a1, Westlife, Ацетон за любезно предоставленные рипы и ОРИГИНАЛЬНЫЕ диски для рипа.
Singles
#777Продолжительность: 00:12:53
Треклист:
01. Dance To The Beat (Kinki-House-Mix) [00:05:28]
02. Dance To The Beat (Radio-Version) [00:03:45]
03. Dance To The Beat (Piano-Groove-Mix) [00:03:39]
Код:
Exact Audio Copy V1.0 beta 1 from 15. November 2010
EAC extraction logfile from 19. February 2011, 10:53
Masterboy / Dance To The Beat
Used drive  : ASUS    DRW-24B1LT   Adapter: 1  ID: 1
Read mode               : Secure
Utilize accurate stream : Yes
Defeat audio cache      : Yes
Make use of C2 pointers : No
Read offset correction                      : 6
Overread into Lead-In and Lead-Out          : No
Fill up missing offset samples with silence : Yes
Delete leading and trailing silent blocks   : No
Null samples used in CRC calculations       : Yes
Used interface                              : Native Win32 interface for Win NT & 2000
Used output format              : User Defined Encoder
Selected bitrate                : 1024 kBit/s
Quality                         : High
Add ID3 tag                     : No
Command line compressor         : C:\Program Files\Exact Audio Copy 1.00b1\Flac\flac.exe
Additional command line options : -8 -V %s
TOC of the extracted CD
     Track |   Start  |  Length  | Start sector | End sector
    ---------------------------------------------------------
        1  |  0:00.33 |  5:30.00 |        33    |    24782
        2  |  5:30.33 |  3:47.00 |     24783    |    41807
        3  |  9:17.33 |  3:41.00 |     41808    |    58382
Range status and errors
Selected range
     Filename F:\!!EAC Lossless\Masterboy - (S)1990 Dance To The Beat (CDM)\Masterboy - Dance To The Beat.wav
     Peak level 81.6 %
     Extraction speed 0.6 X
     Range quality 100.0 %
     Test CRC 452F69DA
     Copy CRC 452F69DA
     Copy OK
No errors occurred
AccurateRip summary
Track  1  accurately ripped (confidence 1)  [26BC43B9]
Track  2  accurately ripped (confidence 1)  [E2E78AB9]
Track  3  accurately ripped (confidence 1)  [917A1CF2]
All tracks accurately ripped
End of status report
==== Log checksum 87162035423E993A84E87E64CF8D63EF03CD4B65BB98EB5B86CC420F74ECC5E6 ====
#777Продолжительность: 00:14:41
Треклист:
01. Dance To The Beat (Loca House Remix) [00:05:00]
02. Dance To The Beat (Radio Version) [00:03:45]
03. Dance To The Beat (Piano Special Groove Mix) [00:05:55]
Код:
Exact Audio Copy V1.0 beta 1 from 15. November 2010
EAC extraction logfile from 19. February 2011, 10:37
Masterboy / Dance To The Beat (Remix)
Used drive  : ASUS    DRW-24B1LT   Adapter: 1  ID: 1
Read mode               : Secure
Utilize accurate stream : Yes
Defeat audio cache      : Yes
Make use of C2 pointers : No
Read offset correction                      : 6
Overread into Lead-In and Lead-Out          : No
Fill up missing offset samples with silence : Yes
Delete leading and trailing silent blocks   : No
Null samples used in CRC calculations       : Yes
Used interface                              : Native Win32 interface for Win NT & 2000
Used output format              : User Defined Encoder
Selected bitrate                : 1024 kBit/s
Quality                         : High
Add ID3 tag                     : No
TOC of the extracted CD
     Track |   Start  |  Length  | Start sector | End sector
    ---------------------------------------------------------
        1  |  0:00.32 |  5:03.00 |        32    |    22756
        2  |  5:03.32 |  3:47.00 |     22757    |    39781
        3  |  8:50.32 |  5:57.25 |     39782    |    66581
Range status and errors
Selected range
     Filename F:\!!EAC Lossless\Masterboy - (S)1990 Dance To The Beat (Remix) (CDM)\Masterboy - Dance To The Beat (Remix).wav
     Peak level 90.5 %
     Extraction speed 1.0 X
     Range quality 100.0 %
     Test CRC FC07C93A
     Copy CRC FC07C93A
     Copy OK
No errors occurred
AccurateRip summary
Track  1  accurately ripped (confidence 1)  [90751C40]
Track  2  accurately ripped (confidence 1)  [0D442DE9]
Track  3  accurately ripped (confidence 1)  [6AD698AB]
All tracks accurately ripped
End of status report
==== Log checksum CEBDBF6E9F64F5EF19E370678C27EFDA55DDECEFFBE4A0B1850FE2E684B29D2E ====
#777Продолжительность: 00:21:20
Треклист:
01. I Need Your Love (Single-Version) [00:04:15]
02. I Need Your Love (Vocal-Sun-Remix) [00:06:46]
03. Indian Grave (Single-Version) [00:04:01]
04. Indian Grave (Temple-Mix) [00:06:17]
! Сканы взяты из сети
Код:
Exact Audio Copy V1.0 beta 3 from 29. August 2011
EAC extraction logfile from 11. April 2013, 12:23
Masterboy feat. Mendy Lee & M.C. A.T.B. / I Need Your Love (CDM)
Used drive  : JVC     DVD CU-VD40   Adapter: 9  ID: 0
Read mode               : Secure
Utilize accurate stream : Yes
Defeat audio cache      : Yes
Make use of C2 pointers : No
Read offset correction                      : 30
Overread into Lead-In and Lead-Out          : No
Fill up missing offset samples with silence : Yes
Delete leading and trailing silent blocks   : No
Null samples used in CRC calculations       : Yes
Used interface                              : Native Win32 interface for Win NT & 2000
Used output format : Internal WAV Routines
Sample format      : 44.100 Hz; 16 Bit; Stereo
TOC of the extracted CD
     Track |   Start  |  Length  | Start sector | End sector
    ---------------------------------------------------------
        1  |  0:00.33 |  4:17.25 |        33    |    19332
        2  |  4:17.58 |  6:48.00 |     19333    |    49932
        3  | 11:05.58 |  4:02.50 |     49933    |    68132
        4  | 15:08.33 |  6:19.00 |     68133    |    96557
Range status and errors
Selected range
     Filename D:\for rutracker\1991 - Masterboy feat. Mendy Lee & M.C. A.T.B. - I Need Your Love (CDM)\Masterboy feat. Mendy Lee & M.C. A.T.B. - I Need Your Love (CDM).wav
     Peak level 100.0 %
     Extraction speed 1.5 X
     Range quality 100.0 %
     Test CRC E5D50C2F
     Copy CRC E5D50C2F
     Copy OK
No errors occurred
AccurateRip summary
Track  1  accurately ripped (confidence 1)  [AB77D8D9]  (AR v1)
Track  2  accurately ripped (confidence 1)  [94CD50BD]  (AR v1)
Track  3  accurately ripped (confidence 1)  [F1B3B664]  (AR v1)
Track  4  accurately ripped (confidence 1)  [78E2D3D8]  (AR v1)
All tracks accurately ripped
End of status report
==== Log checksum B2C4ED18FE6577BA088B57063342EC81A40537CFD28589E25EB20576C6B51E40 ====
#777Продолжительность: 00:16:38
Треклист:
01. Shake It Up And Dance (Maxi Live Version) [00:06:45]
02. Shake It Up And Dance (Single Version) [00:04:17]
03. Shake It Up And Dance (Instrumental Maxi Version) [00:05:35]
Код:
Exact Audio Copy V1.0 beta 3 from 29. August 2011
Отчёт EAC об извлечении, выполненном 17. декабря 2012, 4:49
Masterboy / Shake It Up And Dance
Дисковод: PLEXTOR DVDR   PX-L890SA   Adapter: 2  ID: 1
Режим чтения                 : Достоверность
Использование точного потока : Да
Отключение кэша аудио        : Да
Использование указателей C2  : Нет
Коррекция смещения при чтении                     : 6
Способность читать области Lead-in и Lead-out     : Нет
Заполнение пропущенных сэмплов тишиной            : Да
Удаление блоков с тишиной в начале и конце        : Нет
При вычислениях CRC использовались нулевые сэмплы : Да
Интерфейс                                         : Встроенный Win32-интерфейс для Win NT/2000
Выходной формат          : Пользовательский кодировщик
Выбранный битрейт        : 1024 kBit/s
Качество                 : Высокий
Добавление ID3-тега      : Нет
Утилита сжатия           : C:\Program Files (x86)\FLAC\flac.exe
Дополнительные параметры :  -V -8 -T "Date=%year%" -T "Genre=%genre%" %source%
TOC извлечённого CD
     Трек |   Старт  | Длительность | Начальный сектор | Конечный сектор
    ---------------------------------------------------------------------
       1  |  0:00.32 |    6:47.45   |          32      |      30601
       2  |  6:48.02 |    4:19.60   |       30602      |      50086
       3  | 11:07.62 |    5:37.60   |       50087      |      75421
Характеристики диапазона извлечения и сообщения об ошибках
Выбранный диапазон
     Имя файла C:\Users\User\Desktop\1991 - Shake It Up And Dance\Masterboy - 1991 - Shake It Up And Dance.wav
     Пиковый уровень 86.5 %
     Скорость извлечения 6.4 X
     Качество диапазона 99.9 %
     CRC теста CCEF90E1
     CRC копии CCEF90E1
     Копирование... OK
Ошибок не произошло
AccurateRip: сводка
Трек  1  : извлечено точно (доверие 3)  [8471C9E7]  (AR v1)
Трек  2  : извлечено точно (доверие 3)  [F73AB92E]  (AR v1)
Трек  3  : извлечено точно (доверие 3)  [649E6564]  (AR v1)
Все треки извлечены точно
Конец отчёта
==== Контрольная сумма отчёта F7A2CCB6796462F357B4B7FA7D9A4DA016849A0B932A23AA620F8BD816CBC647 ====
#777Продолжительность: 00:19:11
Треклист:
01. Noche Del Amor (Single-Version) [00:03:36]
02. Noche Del Amor (Banana-Mix) [00:05:57]
03. Summer Night (Rap-Version) [00:05:57]
04. Noche Del Amor (Live-Version) [00:03:39]
Код:
Exact Audio Copy V1.0 beta 1 from 15. November 2010
EAC extraction logfile from 19. February 2011, 9:46
Masterboy / O-Oh... Noche Del Amor
Used drive  : ASUS    DRW-24B1LT   Adapter: 1  ID: 1
Read mode               : Secure
Utilize accurate stream : Yes
Defeat audio cache      : Yes
Make use of C2 pointers : No
Read offset correction                      : 6
Overread into Lead-In and Lead-Out          : No
Fill up missing offset samples with silence : Yes
Delete leading and trailing silent blocks   : No
Null samples used in CRC calculations       : Yes
Used interface                              : Native Win32 interface for Win NT & 2000
Used output format              : User Defined Encoder
Selected bitrate                : 1024 kBit/s
Quality                         : High
Add ID3 tag                     : No
Command line compressor         : C:\Program Files\Exact Audio Copy 1.00b1\Flac\flac.exe
Additional command line options : -8 -V %s
TOC of the extracted CD
     Track |   Start  |  Length  | Start sector | End sector
    ---------------------------------------------------------
        1  |  0:00.33 |  3:37.60 |        33    |    16367
        2  |  3:38.18 |  6:00.12 |     16368    |    43379
        3  |  9:38.30 |  6:00.13 |     43380    |    70392
        4  | 15:38.43 |  3:42.47 |     70393    |    87089
Range status and errors
Selected range
     Filename F:\!!EAC Lossless\Masterboy - (S)1992 O-Oh... Noche Del Amor (CDM)\Masterboy - O-Oh... Noche Del Amor.wav
     Peak level 100.0 %
     Extraction speed 0.4 X
     Range quality 100.0 %
     Test CRC BAD650E5
     Copy CRC BAD650E5
     Copy OK
No errors occurred
AccurateRip summary
Track  1  accurately ripped (confidence 1)  [5C3505CA]
Track  2  accurately ripped (confidence 1)  [B3D15856]
Track  3  accurately ripped (confidence 1)  [E559D0DF]
Track  4  accurately ripped (confidence 1)  [966D0C0E]
All tracks accurately ripped
End of status report
==== Log checksum 8C5BB9C8BECE380457C2C2DE00A40D83A556CD3506C08B8226F35FE40F748561 ====
#777Продолжительность: 00:36:20
Тип рипа: tracks+.cue
Треклист:
01. Fall In Trance (Radio Edit) [00:03:34]
02. Fall In Trance (Organ Mix) [00:07:12]
03. Fall In Trance (Instrumental) [00:12:48]
04. Give It Up [00:12:44]
Код:
Exact Audio Copy V0.99 prebeta 5 from 4. May 2009
EAC extraction logfile from 11. May 2010, 18:58
Masterboy / Fall In Trance
Used drive  : Optiarc DVD RW AD-7200A   Adapter: 4  ID: 0
Read mode               : Secure
Utilize accurate stream : Yes
Defeat audio cache      : Yes
Make use of C2 pointers : No
Read offset correction                      : 48
Overread into Lead-In and Lead-Out          : No
Fill up missing offset samples with silence : Yes
Delete leading and trailing silent blocks   : No
Null samples used in CRC calculations       : Yes
Used interface                              : Native Win32 interface for Win NT & 2000
Gap handling                                : Appended to previous track
Used output format : Internal WAV Routines
Sample format      : 44.100 Hz; 16 Bit; Stereo
TOC of the extracted CD
     Track |   Start  |  Length  | Start sector | End sector
    ---------------------------------------------------------
        1  |  0:00.33 |  3:37.70 |        33    |    16377
        2  |  3:38.28 |  6:25.52 |     16378    |    45304
        3  | 10:04.05 |  6:23.53 |     45305    |    74082
        4  | 16:27.58 |  3:02.12 |     74083    |    87744
Track  1
     Filename C:\Users\Сергей\Desktop\Masterboy - Fall In Trance (CDM 1993)\01. Masterboy - Fall In Trance (Radio Edit).wav
     Pre-gap length  0:00:02.44
     Peak level 89.5 %
     Track quality 100.0 %
     Test CRC B4E524F3
     Copy CRC B4E524F3
     Accurately ripped (confidence 3)  [25B6D3B2]
     Copy OK
Track  2
     Filename C:\Users\Сергей\Desktop\Masterboy - Fall In Trance (CDM 1993)\02. Masterboy - Fall In Trance (Organ Mix).wav
     Pre-gap length  0:00:03.10
     Peak level 100.0 %
     Track quality 100.0 %
     Test CRC F2605A61
     Copy CRC F2605A61
     Accurately ripped (confidence 3)  [65D61A0D]
     Copy OK
Track  3
     Filename C:\Users\Сергей\Desktop\Masterboy - Fall In Trance (CDM 1993)\03. Masterboy - Fall In Trance (Instrumental).wav
     Pre-gap length  0:00:02.62
     Peak level 100.0 %
     Track quality 100.0 %
     Test CRC 42167336
     Copy CRC 42167336
     Accurately ripped (confidence 3)  [1428EFE9]
     Copy OK
Track  4
     Filename C:\Users\Сергей\Desktop\Masterboy - Fall In Trance (CDM 1993)\04. Masterboy - Give It Up.wav
     Pre-gap length  0:00:02.84
     Peak level 100.0 %
     Track quality 100.0 %
     Test CRC E1C6E00B
     Copy CRC E1C6E00B
     Accurately ripped (confidence 3)  [854F23E9]
     Copy OK
All tracks accurately ripped
No errors occurred
End of status report
Код:
REM GENRE Eurodance
REM DATE 1993
REM DISCID 2C049104
REM COMMENT "ExactAudioCopy v0.99pb5"
PERFORMER "Masterboy"
TITLE "Fall In Trance"
FILE "01. Masterboy - Fall In Trance (Radio Edit).wav" WAVE
  TRACK 01 AUDIO
    TITLE "Fall In Trance (Radio Edit)"
    PERFORMER "Masterboy"
    PREGAP 00:00:33
    INDEX 01 00:00:00
  TRACK 02 AUDIO
    TITLE "Fall In Trance (Organ Mix)"
    PERFORMER "Masterboy"
    INDEX 00 03:34:62
FILE "02. Masterboy - Fall In Trance (Organ Mix).wav" WAVE
    INDEX 01 00:00:00
  TRACK 03 AUDIO
    TITLE "Fall In Trance (Instrumental)"
    PERFORMER "Masterboy"
    INDEX 00 06:23:05
FILE "03. Masterboy - Fall In Trance (Instrumental).wav" WAVE
    INDEX 01 00:00:00
  TRACK 04 AUDIO
    TITLE "Give It Up"
    PERFORMER "Masterboy"
    INDEX 00 06:20:65
FILE "04. Masterboy - Give It Up.wav" WAVE
    INDEX 01 00:00:00
#777Продолжительность: 00:16:31
Треклист:
01. Feel The Heat Of The Night (Radio Edit) [00:03:41]
02. Feel The Heat Of The Night (Free & Independent Mix) [00:06:44]
03. Feel The Heat Of The Night (Sunshine Mix) [00:06:06]
Код:
Exact Audio Copy V1.0 beta 3 from 29. August 2011
Отчёт EAC об извлечении, выполненном 17. декабря 2012, 23:47
Masterboy / Feel The Heat Of The Night (CDM)
Дисковод: PLEXTOR DVDR   PX-L890SA   Adapter: 2  ID: 1
Режим чтения                 : Достоверность
Использование точного потока : Да
Отключение кэша аудио        : Да
Использование указателей C2  : Нет
Коррекция смещения при чтении                     : 6
Способность читать области Lead-in и Lead-out     : Нет
Заполнение пропущенных сэмплов тишиной            : Да
Удаление блоков с тишиной в начале и конце        : Нет
При вычислениях CRC использовались нулевые сэмплы : Да
Интерфейс                                         : Встроенный Win32-интерфейс для Win NT/2000
Выходной формат          : Пользовательский кодировщик
Выбранный битрейт        : 1024 kBit/s
Качество                 : Высокий
Добавление ID3-тега      : Нет
Утилита сжатия           : C:\Program Files (x86)\FLAC\flac.exe
Дополнительные параметры :  -V -8 -T "Date=%year%" -T "Genre=%genre%" %source%
TOC извлечённого CD
     Трек |   Старт  | Длительность | Начальный сектор | Конечный сектор
    ---------------------------------------------------------------------
       1  |  0:00.32 |    3:41.63   |          32      |      16669
       2  |  3:42.20 |    6:44.20   |       16670      |      46989
       3  | 10:26.40 |    6:06.30   |       46990      |      74469
Характеристики диапазона извлечения и сообщения об ошибках
Выбранный диапазон
     Имя файла C:\Users\User\Desktop\1994 - Feel The Heat Of The Night (CDM)\Masterboy - 1994 - Feel The Heat Of The Night (CDM).wav
     Пиковый уровень 98.6 %
     Скорость извлечения 6.5 X
     Качество диапазона 100.0 %
     CRC теста 1E304917
     CRC копии 1E304917
     Копирование... OK
Ошибок не произошло
AccurateRip: сводка
Трек  1  : извлечено точно (доверие 5)  [17B57B4E]  (AR v2)
Трек  2  : извлечено точно (доверие 5)  [49BB72DE]  (AR v2)
Трек  3  : извлечено точно (доверие 3)  [78DE0AB2]  (AR v2)
Все треки извлечены точно
Конец отчёта
==== Контрольная сумма отчёта BDE46B856CDB0408BEDA3264F1A5D7F6ED77226293F5C8A59E75C0499A405FB3 ====
#777Продолжительность: 00:17:10
Треклист:
01. Feel The Heat Of The Night (Shark Mix) [00:05:52]
02. Feel The Heat Of The Night (The Second Mix) [00:05:54]
03. Feel The Heat Of The Night (Bass Mix) [00:05:24]
Код:
Exact Audio Copy V1.0 beta 3 from 29. August 2011
EAC extraction logfile from 16. December 2012, 22:42
Masterboy / Feel The Heat Of The Night (Remixes)
Used drive  : LITE-ON LTR-52327S   Adapter: 0  ID: 0
Read mode               : Secure
Utilize accurate stream : Yes
Defeat audio cache      : Yes
Make use of C2 pointers : No
Read offset correction                      : 6
Overread into Lead-In and Lead-Out          : No
Fill up missing offset samples with silence : Yes
Delete leading and trailing silent blocks   : No
Null samples used in CRC calculations       : Yes
Used interface                              : Native Win32 interface for Win NT & 2000
Used output format : Internal WAV Routines
Sample format      : 44.100 Hz; 16 Bit; Stereo
TOC of the extracted CD
     Track |   Start  |  Length  | Start sector | End sector
    ---------------------------------------------------------
        1  |  0:00.33 |  5:53.00 |        33    |    26507
        2  |  5:53.33 |  5:56.00 |     26508    |    53207
        3  | 11:49.33 |  5:26.00 |     53208    |    77657
Range status and errors
Selected range
     Filename K:\Lossless Eurodance\Masterboy\Singles\Masterboy - Feel The Heat Of The Night (Remixes) CDM.wav
     Peak level 98.1 %
     Extraction speed 4.6 X
     Range quality 100.0 %
     Test CRC 92EF2288
     Copy CRC 92EF2288
     Copy OK
No errors occurred
AccurateRip summary
Track  1  accurately ripped (confidence 3)  [4F306C38]  (AR v1)
Track  2  accurately ripped (confidence 2)  [A44537A4]  (AR v1)
Track  3  accurately ripped (confidence 2)  [27C5480F]  (AR v1)
All tracks accurately ripped
End of status report
==== Log checksum 4AE7C945EE1C45D0D88236292D1EC76F0ACA17B8B8B051EBDCCEFD4C5E4E185C ====
#777Продолжительность: 00:16:41
Треклист:
01. Feel The Heat Of The Night (Unplugged) [00:03:01]
02. Feel The Heat Of The Night (Voodoo Mix) [00:06:01]
03. Masterboy Mega Mix [00:07:39]
Код:
Exact Audio Copy V1.0 beta 3 from 29. August 2011
Отчёт EAC об извлечении, выполненном 17. декабря 2012, 3:25
Masterboy / Feel The Heat Of The Night (Re-Re-Mix) (CDM)
Дисковод: PLEXTOR DVDR   PX-L890SA   Adapter: 2  ID: 1
Режим чтения                 : Достоверность
Использование точного потока : Да
Отключение кэша аудио        : Да
Использование указателей C2  : Нет
Коррекция смещения при чтении                     : 6
Способность читать области Lead-in и Lead-out     : Нет
Заполнение пропущенных сэмплов тишиной            : Да
Удаление блоков с тишиной в начале и конце        : Нет
При вычислениях CRC использовались нулевые сэмплы : Да
Интерфейс                                         : Встроенный Win32-интерфейс для Win NT/2000
Выходной формат          : Пользовательский кодировщик
Выбранный битрейт        : 1024 kBit/s
Качество                 : Высокий
Добавление ID3-тега      : Нет
Утилита сжатия           : C:\Program Files (x86)\FLAC\flac.exe
Дополнительные параметры :  -V -8 -T "Date=%year%" -T "Genre=%genre%" %source%
TOC извлечённого CD
     Трек |   Старт  | Длительность | Начальный сектор | Конечный сектор
    ---------------------------------------------------------------------
       1  |  0:00.33 |    3:01.27   |          33      |      13634
       2  |  3:01.60 |    6:02.03   |       13635      |      40787
       3  |  9:03.63 |    7:39.65   |       40788      |      75277
Характеристики диапазона извлечения и сообщения об ошибках
Выбранный диапазон
     Имя файла C:\Users\User\Desktop\1994 - Feel The Heat Of The Night (Re-Re-Mix) (CDM)\Masterboy - 1994 - Feel The Heat Of The Night (Re-Re-Mix) (CDM).wav
     Пиковый уровень 100.0 %
     Скорость извлечения 6.5 X
     Качество диапазона 100.0 %
     CRC теста 67A41CA7
     CRC копии 67A41CA7
     Копирование... OK
Ошибок не произошло
AccurateRip: сводка
Трек  1  отсутствует в базе данных
Трек  2  отсутствует в базе данных
Трек  3  : извлечено точно (доверие 1)  [C22D77F7]  (AR v1)
 1 трек(и) скопированы точно
 2 трек(и) не содержатся в базе AccurateRip
Некоторые треки не прошли проверку на точность
Конец отчёта
==== Контрольная сумма отчёта 70FD5FA22C290175777DF630D7388C022EEC8CB1C07D10632B5B40E17E367E34 ====
#777Продолжительность: 00:15:01
Треклист:
01. I Got To Give It Up (Single Edit) [00:03:34]
02. I Got To Give It Up (Get Away Mix) [00:06:01]
03. I Got To Give It Up (Italo Mix) [00:05:24]
Код:
Exact Audio Copy V1.0 beta 3 from 29. August 2011
Отчёт EAC об извлечении, выполненном 17. декабря 2012, 23:32
Masterboy / I Got To Give It Up (CDM)
Дисковод: PLEXTOR DVDR   PX-L890SA   Adapter: 2  ID: 1
Режим чтения                 : Достоверность
Использование точного потока : Да
Отключение кэша аудио        : Да
Использование указателей C2  : Нет
Коррекция смещения при чтении                     : 6
Способность читать области Lead-in и Lead-out     : Нет
Заполнение пропущенных сэмплов тишиной            : Да
Удаление блоков с тишиной в начале и конце        : Нет
При вычислениях CRC использовались нулевые сэмплы : Да
Интерфейс                                         : Встроенный Win32-интерфейс для Win NT/2000
Выходной формат          : Пользовательский кодировщик
Выбранный битрейт        : 1024 kBit/s
Качество                 : Высокий
Добавление ID3-тега      : Нет
Утилита сжатия           : C:\Program Files (x86)\FLAC\flac.exe
Дополнительные параметры :  -V -8 -T "Date=%year%" -T "Genre=%genre%" %source%
TOC извлечённого CD
     Трек |   Старт  | Длительность | Начальный сектор | Конечный сектор
    ---------------------------------------------------------------------
       1  |  0:00.32 |    3:35.00   |          32      |      16156
       2  |  3:35.32 |    6:01.60   |       16157      |      43291
       3  |  9:37.17 |    5:24.43   |       43292      |      67634
Характеристики диапазона извлечения и сообщения об ошибках
Выбранный диапазон
     Имя файла C:\Users\User\Desktop\1994 - I Got To Give It Up (CDM)\Masterboy - 1994 - I Got To Give It Up (CDM).wav
     Пиковый уровень 98.8 %
     Скорость извлечения 2.3 X
     Качество диапазона 100.0 %
     CRC теста E3CC98BC
     CRC копии E3CC98BC
     Копирование... OK
Ошибок не произошло
AccurateRip: сводка
Трек  1  : извлечено точно (доверие 5)  [1609F28D]  (AR v2)
Трек  2  : извлечено точно (доверие 5)  [652FD6BC]  (AR v2)
Трек  3  : извлечено точно (доверие 4)  [2A03E2CF]  (AR v2)
Все треки извлечены точно
Конец отчёта
==== Контрольная сумма отчёта 9B96514CE5435A0AB8E9D33EAC894B02FB3FA43AE27E7ED08F72966D9EC70AFA ====
#777Продолжительность: 00:17:48
Треклист:
01. I Got To Give It Up (On And On Mix) [00:06:03]
02. I Got To Give It Up (Guitana Mix) [00:05:44]
03. I Got To Give It Up (Instrumental Mix) [00:06:00]
Код:
Exact Audio Copy V1.0 beta 3 from 29. August 2011
EAC extraction logfile from 16. December 2012, 22:33
Masterboy / I Got To Give It Up (Remixes) CDM
Used drive  : LITE-ON LTR-52327S   Adapter: 0  ID: 0
Read mode               : Secure
Utilize accurate stream : Yes
Defeat audio cache      : Yes
Make use of C2 pointers : No
Read offset correction                      : 6
Overread into Lead-In and Lead-Out          : No
Fill up missing offset samples with silence : Yes
Delete leading and trailing silent blocks   : No
Null samples used in CRC calculations       : Yes
Used interface                              : Native Win32 interface for Win NT & 2000
Used output format : Internal WAV Routines
Sample format      : 44.100 Hz; 16 Bit; Stereo
TOC of the extracted CD
     Track |   Start  |  Length  | Start sector | End sector
    ---------------------------------------------------------
        1  |  0:00.33 |  6:04.50 |        33    |    27382
        2  |  6:05.08 |  5:45.70 |     27383    |    53327
        3  | 11:51.03 |  6:02.05 |     53328    |    80482
Range status and errors
Selected range
     Filename K:\Lossless Eurodance\Masterboy\Singles\Masterboy - I Got To Give It Up (Remixes) (CDM-1994-FLAC-aZo)\Masterboy - I Got To Give It Up (Remixes) CDM.wav
     Peak level 98.8 %
     Extraction speed 4.6 X
     Range quality 100.0 %
     Test CRC 5D372AED
     Copy CRC 5D372AED
     Copy OK
No errors occurred
AccurateRip summary
Track  1  accurately ripped (confidence 6)  [FAC40F9B]  (AR v1)
Track  2  accurately ripped (confidence 6)  [6C5B3845]  (AR v1)
Track  3  accurately ripped (confidence 6)  [3B146EE2]  (AR v1)
All tracks accurately ripped
End of status report
==== Log checksum 62C7743AE5BC39C9FA9B6B41C5DC9E4D312564D944A1639BDEFDDBD7A290DD86 ====
#777Продолжительность: 00:22:10
Треклист:
01. Is This The Love (Radio Edit) [00:03:43]
02. Is This The Love (Union Mix) [00:05:34]
03. Is This The Love (Is This The House Techno Mix) [00:06:20]
04. Is This The Love (Big Sound Mix) [00:06:32]
Код:
Exact Audio Copy V0.99 prebeta 4 from 23. January 2008
Отчёт EAC об извлечении, выполненном 4. февраля 2009, 14:06
Masterboy / Is This The Love
Дисковод: HL-DT-STDVD-RW GCA-4080N   Adapter: 0  ID: 2
Режим чтения                 : Достоверность
Использование точного потока : Да
Отключение кэша аудио        : Да
Использование указателей C2  : Нет
Коррекция смещения при чтении                     : 667
Способность читать области Lead-in и Lead-out     : Нет
Заполнение пропущенных сэмплов тишиной            : Да
Удаление блоков с тишиной в начале и конце        : Нет
При вычислениях CRC использовались нулевые сэмплы : Да
Интерфейс                                         : Установленный внешний ASPI-интерфейс
Выходной формат : Внутренние WAV-операции
Формат сэмплов  : 44.100 Гц; 16 бит; стерео
TOC извлечённого CD
     Трек |   Старт  | Длительность | Начальный сектор | Конечный сектор
    ---------------------------------------------------------------------
       1  |  0:00.32 |    3:44.00   |          32      |      16831
       2  |  3:44.32 |    5:35.25   |       16832      |      41981
       3  |  9:19.57 |    6:21.25   |       41982      |      70581
       4  | 15:41.07 |    6:33.25   |       70582      |     100081
Характеристики диапазона извлечения и сообщения об ошибках
Выбранный диапазон
     Имя файла D:\Masterboy - Is This The Love (CDM-1994-FLAC-aZo)\Masterboy - Is This The Love.wav
     Пиковый уровень 99.8 %
     Качество диапазона 100.0 %
     CRC теста 22C3368E
     CRC копии 22C3368E
     Копирование... OK
Ошибок не произошло
AccurateRip: сводка
Трек  1  точное извлечение (доверие 3)  [4446F4BD]
Трек  2  точное извлечение (доверие 3)  [77883675]
Трек  3  точное извлечение (доверие 3)  [DDF05BD4]
Трек  4  точное извлечение (доверие 3)  [0DC3074E]
Все треки извлечены точно
Конец отчёта
#777Продолжительность: 00:24:06
Треклист:
01. Is This The Love (Fun Club Mix) [00:06:11]
02. Is This The Love (Acid Mix) [00:05:49]
03. Is This The Love (T'N'T Party Zone Master Mix) [00:06:32]
04. Is This The Love (Alternative Mix) [00:05:32]
Код:
Exact Audio Copy V1.0 beta 3 from 29. August 2011
EAC extraction logfile from 16. December 2012, 22:06
Masterboy / Is This The Love (Remix) CDM
Used drive  : LITE-ON LTR-52327S   Adapter: 0  ID: 0
Read mode               : Secure
Utilize accurate stream : Yes
Defeat audio cache      : Yes
Make use of C2 pointers : No
Read offset correction                      : 6
Overread into Lead-In and Lead-Out          : No
Fill up missing offset samples with silence : Yes
Delete leading and trailing silent blocks   : No
Null samples used in CRC calculations       : Yes
Used interface                              : Native Win32 interface for Win NT & 2000
Used output format : Internal WAV Routines
Sample format      : 44.100 Hz; 16 Bit; Stereo
TOC of the extracted CD
     Track |   Start  |  Length  | Start sector | End sector
    ---------------------------------------------------------
        1  |  0:00.33 |  6:13.25 |        33    |    28032
        2  |  6:13.58 |  5:52.00 |     28033    |    54432
        3  | 12:05.58 |  6:34.00 |     54433    |    83982
        4  | 18:39.58 |  5:34.37 |     83983    |   109069
Range status and errors
Selected range
     Filename K:\Lossless Eurodance\Masterboy\Singles\Masterboy - Is This The Love (Remix) (CDM-1994-FLAC-aZo)\Masterboy - Is This The Love (Remix) CDM.wav
     Peak level 98.0 %
     Extraction speed 5.4 X
     Range quality 100.0 %
     Test CRC 51708FFC
     Copy CRC 51708FFC
     Copy OK
No errors occurred
AccurateRip summary
Track  1  accurately ripped (confidence 2)  [AC952294]  (AR v1)
Track  2  accurately ripped (confidence 2)  [DEF3FE4C]  (AR v1)
Track  3  accurately ripped (confidence 2)  [CC5B1CE4]  (AR v1)
Track  4  accurately ripped (confidence 2)  [E3B54DC0]  (AR v1)
All tracks accurately ripped
End of status report
==== Log checksum 53EC4E1804BADD5C12B8C7C365D014FC9B1BD0C912C2CC271A7409CFBEA17699 ====
#777Продолжительность: 00:31:24
Треклист:
01. Anybody (Movin' On) (Friends Radio Edit) [00:03:53]
02. Anybody (Movin' On) (Midnight Radio Edit) [00:03:26]
03. Anybody (Movin' On) (Friends Mix) [00:06:34]
04. Anybody (Movin' On) (Midnight Mix) [00:05:27]
05. Anybody (Movin' On) (Mighnight Mix-Rapless Version) [00:05:27]
06. Anybody (Movin' On) (Instrumental) [00:06:34]
Код:
Exact Audio Copy V1.0 beta 3 from 29. August 2011
Отчёт EAC об извлечении, выполненном 17. декабря 2012, 4:23
Masterboy / Anybody (Movin' On) (CDM)
Дисковод: PLEXTOR DVDR   PX-L890SA   Adapter: 2  ID: 1
Режим чтения                 : Достоверность
Использование точного потока : Да
Отключение кэша аудио        : Да
Использование указателей C2  : Нет
Коррекция смещения при чтении                     : 6
Способность читать области Lead-in и Lead-out     : Нет
Заполнение пропущенных сэмплов тишиной            : Да
Удаление блоков с тишиной в начале и конце        : Нет
При вычислениях CRC использовались нулевые сэмплы : Да
Интерфейс                                         : Встроенный Win32-интерфейс для Win NT/2000
Выходной формат          : Пользовательский кодировщик
Выбранный битрейт        : 1024 kBit/s
Качество                 : Высокий
Добавление ID3-тега      : Нет
Утилита сжатия           : C:\Program Files (x86)\FLAC\flac.exe
Дополнительные параметры :  -V -8 -T "Date=%year%" -T "Genre=%genre%" %source%
TOC извлечённого CD
     Трек |   Старт  | Длительность | Начальный сектор | Конечный сектор
    ---------------------------------------------------------------------
       1  |  0:00.32 |    3:54.35   |          32      |      17616
       2  |  3:54.67 |    3:26.40   |       17617      |      33106
       3  |  7:21.32 |    6:34.70   |       33107      |      62726
       4  | 13:56.27 |    5:27.25   |       62727      |      87276
       5  | 19:23.52 |    5:27.25   |       87277      |     111826
       6  | 24:51.02 |    6:34.30   |      111827      |     141406
Характеристики диапазона извлечения и сообщения об ошибках
Выбранный диапазон
     Имя файла C:\Users\User\Desktop\Новая папка (2)\1995 - Anybody (Movin' On) (CDM)\Masterboy - 1995 - Anybody (Movin' On) (CDM).wav
     Пиковый уровень 97.7 %
     Скорость извлечения 7.3 X
     Качество диапазона 99.9 %
     CRC теста B4BB7673
     CRC копии B4BB7673
     Копирование... OK
Ошибок не произошло
AccurateRip: сводка
Трек  1  : извлечено точно (доверие 3)  [60D52C86]  (AR v2)
Трек  2  : извлечено точно (доверие 3)  [5DBEC3E6]  (AR v2)
Трек  3  : извлечено точно (доверие 3)  [925B5101]  (AR v2)
Трек  4  : извлечено точно (доверие 3)  [D0929B05]  (AR v2)
Трек  5  : извлечено точно (доверие 3)  [1358127B]  (AR v2)
Трек  6  : извлечено точно (доверие 2)  [4FF98EA1]  (AR v2)
Все треки извлечены точно
Конец отчёта
==== Контрольная сумма отчёта B151963AEF814AA762D4D4345BDA74BD4842A73BBDAE752EDF546E767C26F432 ====
#777Продолжительность: 00:36:15
Треклист:
01. Anybody (Movin' On) (FelixJ. Gauder Radio Rmx) [00:04:08]
02. Anybody (Movin' On) (Felix J. Gauder Radio Rapless Rmx) [00:03:50]
03. Anybody (Movin' On) (Felix J. Gauder Rmx) [00:06:23]
04. Anybody (Movin' On) (La Casa Di Topica Rmx) [00:05:28]
05. Anybody (Movin' On) (Felix J. Gauder Rapless Rmx) [00:05:54]
06. Anybody (Movin' On) (Tokapi's Club Dub) [00:05:22]
07. Anybody (Movin' On) (Neon Rave Rmx) [00:05:09]
! Сканы взяты из сети
Код:
Exact Audio Copy V1.0 beta 3 from 29. August 2011
EAC extraction logfile from 11. April 2013, 13:28
Masterboy / Anybody (Movin' On) (Remixes) (CDM)
Used drive  : JVC     DVD CU-VD40   Adapter: 9  ID: 0
Read mode               : Secure
Utilize accurate stream : Yes
Defeat audio cache      : Yes
Make use of C2 pointers : No
Read offset correction                      : 30
Overread into Lead-In and Lead-Out          : No
Fill up missing offset samples with silence : Yes
Delete leading and trailing silent blocks   : No
Null samples used in CRC calculations       : Yes
Used interface                              : Native Win32 interface for Win NT & 2000
Used output format : Internal WAV Routines
Sample format      : 44.100 Hz; 16 Bit; Stereo
TOC of the extracted CD
     Track |   Start  |  Length  | Start sector | End sector
    ---------------------------------------------------------
        1  |  0:00.33 |  4:08.60 |        33    |    18692
        2  |  4:09.18 |  3:50.40 |     18693    |    35982
        3  |  7:59.58 |  6:24.07 |     35983    |    64789
        4  | 14:23.65 |  5:29.10 |     64790    |    89474
        5  | 19:53.00 |  5:55.28 |     89475    |   116127
        6  | 25:48.28 |  5:22.67 |    116128    |   140344
        7  | 31:11.20 |  5:09.63 |    140345    |   163582
Range status and errors
Selected range
     Filename D:\for rutracker\1994 - Masterboy - Anybody (Movin' On) (Remixes) (CDM)\Masterboy - Anybody (Movin' On) (Remixes) (CDM).wav
     Peak level 97.2 %
     Extraction speed 1.6 X
     Range quality 100.0 %
     Test CRC 3156FDF3
     Copy CRC 3156FDF3
     Copy OK
No errors occurred
AccurateRip summary
Track  1  accurately ripped (confidence 1)  [29708D32]  (AR v1)
Track  2  accurately ripped (confidence 1)  [40D91ADC]  (AR v1)
Track  3  accurately ripped (confidence 1)  [2496258E]  (AR v1)
Track  4  accurately ripped (confidence 1)  [9744DAA0]  (AR v1)
Track  5  accurately ripped (confidence 1)  [3DA9F956]  (AR v1)
Track  6  accurately ripped (confidence 1)  [73143F3C]  (AR v1)
Track  7  accurately ripped (confidence 1)  [CD4F4638]  (AR v1)
All tracks accurately ripped
End of status report
==== Log checksum FC66977DE48A47D8F2DB3C573E1B869B280BE59DEEA0C6711350EABE7B721870 ====
#777Продолжительность: 00:09:58
Тип рипа: tracks+.cue
Треклист:
01. Different Dreams (Single Edit) [00:03:45]
02. Different Dreams (Maxi Edit) [00:06:13]
Код:
Exact Audio Copy V0.99 prebeta 5 from 4. May 2009
EAC extraction logfile from 28. July 2011, 9:03
Masterboy / Different Dreams
Used drive  : SlimtypeDVD A  DS8A1P   Adapter: 1  ID: 0
Read mode               : Secure
Utilize accurate stream : Yes
Defeat audio cache      : Yes
Make use of C2 pointers : No
Read offset correction                      : 594
Overread into Lead-In and Lead-Out          : No
Fill up missing offset samples with silence : Yes
Delete leading and trailing silent blocks   : No
Null samples used in CRC calculations       : Yes
Used interface                              : Native Win32 interface for Win NT & 2000
Gap handling                                : Appended to previous track
Used output format              : User Defined Encoder
Selected bitrate                : 128 kBit/s
Quality                         : High
Add ID3 tag                     : No
Command line compressor         : C:\Program Files\Exact Audio Copy\Flac\flac.exe
Additional command line options : -8 -V -T "ARTIST=%a" -T "TITLE=%t" -T "ALBUM=%g" -T "DATE=%y" -T "TRACKNUMBER=%n" -T "GENRE=%m" -T "COMMENT=ripped by Westlife" %s
TOC of the extracted CD
     Track |   Start  |  Length  | Start sector | End sector
    ---------------------------------------------------------
        1  |  0:00.00 |  3:45.10 |         0    |    16884
        2  |  3:45.10 |  6:13.40 |     16885    |    44899
Track  1
     Filename F:\lossless_releases\Masterboy_-_Different_Dreams-CDS-1995-LOSSLESS-WESTLIFE\01. Masterboy - Different Dreams (Single Edit).wav
     Pre-gap length  0:00:02.00
     Peak level 96.9 %
     Track quality 99.9 %
     Test CRC 36D24493
     Copy CRC 36D24493
     Track not present in AccurateRip database
     Copy OK
Track  2
     Filename F:\lossless_releases\Masterboy_-_Different_Dreams-CDS-1995-LOSSLESS-WESTLIFE\02. Masterboy - Different Dreams (Maxi Edit).wav
     Pre-gap length  0:00:01.17
     Peak level 98.5 %
     Track quality 100.0 %
     Test CRC C36782C6
     Copy CRC C36782C6
     Track not present in AccurateRip database
     Copy OK
None of the tracks are present in the AccurateRip database
No errors occurred
End of status report
Код:
REM GENRE Eurodance
REM DATE 1995
REM DISCID 0D026802
REM COMMENT "ExactAudioCopy v0.99pb5"
PERFORMER "Masterboy"
TITLE "Different Dreams"
FILE "01. Masterboy - Different Dreams (Single Edit).flac" WAVE
  TRACK 01 AUDIO
    PERFORMER "Masterboy"
    TITLE "Different Dreams (Single Edit)"
    INDEX 01 00:00:00
  TRACK 02 AUDIO
    PERFORMER "Masterboy"
    TITLE "Different Dreams (Maxi Edit)"
    INDEX 00 03:43:72
FILE "02. Masterboy - Different Dreams (Maxi Edit).flac" WAVE
    INDEX 01 00:00:00
#777Продолжительность: 00:19:29
Треклист:
01. Generation Of Love (Radio Edit Ipanema Mix) [00:03:40]
02. Generation Of Love (Ipanema Maxi Version) [00:05:49]
03. Generation Of Love (Radio Edit Mondo Mix) [00:04:08]
04. Generation Of Love (Mondo Maxi Version) [00:05:49]
Код:
Exact Audio Copy V0.99 prebeta 4 from 23. January 2008
Отчёт EAC об извлечении, выполненном 4. февраля 2009, 13:57
Masterboy / Generation Of Love CDM
Дисковод: HL-DT-STDVD-RW GCA-4080N   Adapter: 0  ID: 2
Режим чтения                 : Достоверность
Использование точного потока : Да
Отключение кэша аудио        : Да
Использование указателей C2  : Нет
Коррекция смещения при чтении                     : 667
Способность читать области Lead-in и Lead-out     : Нет
Заполнение пропущенных сэмплов тишиной            : Да
Удаление блоков с тишиной в начале и конце        : Нет
При вычислениях CRC использовались нулевые сэмплы : Да
Интерфейс                                         : Установленный внешний ASPI-интерфейс
Выходной формат : Внутренние WAV-операции
Формат сэмплов  : 44.100 Гц; 16 бит; стерео
TOC извлечённого CD
     Трек |   Старт  | Длительность | Начальный сектор | Конечный сектор
    ---------------------------------------------------------------------
       1  |  0:00.33 |    3:41.65   |          33      |      16672
       2  |  3:42.23 |    5:51.25   |       16673      |      43022
       3  |  9:33.48 |    4:09.30   |       43023      |      61727
       4  | 13:43.03 |    5:50.55   |       61728      |      88032
Характеристики диапазона извлечения и сообщения об ошибках
Выбранный диапазон
     Имя файла D:\Masterboy - Generation Of Love (CDM-1995-FLAC-aZo)\Masterboy - Generation Of Love CDM.wav
     Пиковый уровень 97.1 %
     Качество диапазона 100.0 %
     CRC теста BAA53CFF
     CRC копии BAA53CFF
     Копирование... OK
Ошибок не произошло
AccurateRip: сводка
Трек  1  точное извлечение (доверие 6)  [32251EF6]
Трек  2  точное извлечение (доверие 6)  [B3EF0213]
Трек  3  точное извлечение (доверие 6)  [6F7135F6]
Трек  4  точное извлечение (доверие 6)  [2B300703]
Все треки извлечены точно
Конец отчёта
#777Продолжительность: 00:22:42
Треклист:
01. Generation Of Love (Generated Airplay Mix) [00:04:08]
02. Generation Of Love (Generated Mix) [00:07:30]
03. Generation Of Love (Robotnico Acid House Mix) [00:05:02]
04. Generation Of Love (Fly Away Mix) [00:06:02]
Код:
Exact Audio Copy V1.0 beta 3 from 29. August 2011
EAC extraction logfile from 16. December 2012, 21:55
Masterboy / Generation Of Love (Remix) CDM
Used drive  : LITE-ON LTR-52327S   Adapter: 0  ID: 0
Read mode               : Secure
Utilize accurate stream : Yes
Defeat audio cache      : Yes
Make use of C2 pointers : No
Read offset correction                      : 6
Overread into Lead-In and Lead-Out          : No
Fill up missing offset samples with silence : Yes
Delete leading and trailing silent blocks   : No
Null samples used in CRC calculations       : Yes
Used interface                              : Native Win32 interface for Win NT & 2000
Used output format : Internal WAV Routines
Sample format      : 44.100 Hz; 16 Bit; Stereo
TOC of the extracted CD
     Track |   Start  |  Length  | Start sector | End sector
    ---------------------------------------------------------
        1  |  0:00.33 |  4:09.50 |        33    |    18757
        2  |  4:10.08 |  7:31.12 |     18758    |    52594
        3  | 11:41.20 |  5:03.38 |     52595    |    75357
        4  | 16:44.58 |  6:03.50 |     75358    |   102632
Range status and errors
Selected range
     Filename K:\Lossless Eurodance\Masterboy\Singles\Masterboy - Generation Of Love (Remix) (CDM-1995-FLAC-aZo)\Masterboy - Generation Of Love (Remix) CDM.wav
     Peak level 98.6 %
     Extraction speed 5.1 X
     Range quality 100.0 %
     Test CRC B1C9AFBF
     Copy CRC B1C9AFBF
     Copy OK
No errors occurred
AccurateRip summary
Track  1  accurately ripped (confidence 2)  [C0DCBF00]  (AR v1)
Track  2  accurately ripped (confidence 2)  [B58CBD61]  (AR v1)
Track  3  accurately ripped (confidence 2)  [8390F129]  (AR v1)
Track  4  accurately ripped (confidence 2)  [CCA7973C]  (AR v1)
All tracks accurately ripped
End of status report
==== Log checksum 7092447D635507D31F16C3ADCC91EE05ECD1BEF620F25D843A694FB7D5815067 ====
#777Продолжительность: 00:09:21
Тип рипа: tracks+.cue
Треклист:
01. Baby Let It Be (136 BPM) [00:04:07]
02. Baby Let It Be (Original Maxi) [00:05:13]
Код:
Exact Audio Copy V0.99 prebeta 5 from 4. May 2009
EAC extraction logfile from 4. September 2011, 8:40
Masterboy / Baby Let It Be
Used drive  : SlimtypeDVD A  DS8A1P   Adapter: 1  ID: 0
Read mode               : Secure
Utilize accurate stream : Yes
Defeat audio cache      : Yes
Make use of C2 pointers : No
Read offset correction                      : 594
Overread into Lead-In and Lead-Out          : No
Fill up missing offset samples with silence : Yes
Delete leading and trailing silent blocks   : No
Null samples used in CRC calculations       : Yes
Used interface                              : Native Win32 interface for Win NT & 2000
Gap handling                                : Appended to previous track
Used output format              : User Defined Encoder
Selected bitrate                : 128 kBit/s
Quality                         : High
Add ID3 tag                     : No
Command line compressor         : C:\Program Files\Exact Audio Copy\Flac\flac.exe
Additional command line options : -8 -V -T "ARTIST=%a" -T "TITLE=%t" -T "ALBUM=%g" -T "DATE=%y" -T "TRACKNUMBER=%n" -T "GENRE=%m" -T "COMMENT=ripped by Westlife" %s
TOC of the extracted CD
     Track |   Start  |  Length  | Start sector | End sector
    ---------------------------------------------------------
        1  |  0:00.32 |  4:07.55 |        32    |    18611
        2  |  4:08.12 |  5:13.73 |     18612    |    42159
Track  1
     Filename G:\lossless_releases\Masterboy_-_Baby_Let_It_Be-CDS-1996-LOSSLESS-WESTLIFE\01. Masterboy - Baby Let It Be (136 BPM).wav
     Pre-gap length  0:00:02.42
     Peak level 100.0 %
     Track quality 99.9 %
     Test CRC 2C891049
     Copy CRC 2C891049
     Track not present in AccurateRip database
     Copy OK
Track  2
     Filename G:\lossless_releases\Masterboy_-_Baby_Let_It_Be-CDS-1996-LOSSLESS-WESTLIFE\02. Masterboy - Baby Let It Be (Original Maxi).wav
     Peak level 99.2 %
     Track quality 100.0 %
     Test CRC 902EB8D2
     Copy CRC 902EB8D2
     Track not present in AccurateRip database
     Copy OK
None of the tracks are present in the AccurateRip database
No errors occurred
End of status report
Код:
REM GENRE Eurodance
REM DATE 1996
REM COMMENT "ExactAudioCopy v0.99pb5"
PERFORMER "Masterboy"
TITLE "Baby Let It Be"
REM DATE 1996
REM GENRE "Euro-House"
FILE "01. Masterboy - Baby Let It Be (136 BPM).flac" WAVE
  TRACK 01 AUDIO
    PERFORMER "Masterboy"
    TITLE "Baby Let It Be (136 BPM)"
    PREGAP 00:00:32
    INDEX 01 00:00:00
FILE "02. Masterboy - Baby Let It Be (Original Maxi).flac" WAVE
  TRACK 02 AUDIO
    PERFORMER "Masterboy"
    TITLE "Baby Let It Be (Original Maxi)"
    INDEX 01 00:00:00
#777Продолжительность: 00:27:41
Треклист:
01. Land Of Dreaming (Radio Edit) (Gospel Mix) [00:03:32]
02. Land Of Dreaming (Gospel Club Mix) [00:05:15]
03. Land Of Dreaming (Night Club Mix) [00:06:08]
04. Land Of Dreaming (Album Club Mix) [00:05:16]
05. Land Of Dreaming (Instrumental Gospel Mix) [00:03:31]
06. Land Of Dreaming (Radio Edit) (Night Mix) [00:03:56]
Код:
Exact Audio Copy V0.99 prebeta 4 from 23. January 2008
Отчёт EAC об извлечении, выполненном 4. февраля 2009, 13:47
Masterboy / Land Of Dreaming CDM
Дисковод: HL-DT-STDVD-RW GCA-4080N   Adapter: 0  ID: 2
Режим чтения                 : Достоверность
Использование точного потока : Да
Отключение кэша аудио        : Да
Использование указателей C2  : Нет
Коррекция смещения при чтении                     : 667
Способность читать области Lead-in и Lead-out     : Нет
Заполнение пропущенных сэмплов тишиной            : Да
Удаление блоков с тишиной в начале и конце        : Нет
При вычислениях CRC использовались нулевые сэмплы : Да
Интерфейс                                         : Установленный внешний ASPI-интерфейс
Выходной формат : Внутренние WAV-операции
Формат сэмплов  : 44.100 Гц; 16 бит; стерео
TOC извлечённого CD
     Трек |   Старт  | Длительность | Начальный сектор | Конечный сектор
    ---------------------------------------------------------------------
       1  |  0:00.32 |    3:33.00   |          32      |      16006
       2  |  3:33.32 |    5:16.05   |       16007      |      39711
       3  |  8:49.37 |    6:09.45   |       39712      |      67431
       4  | 14:59.07 |    5:17.00   |       67432      |      91206
       5  | 20:16.07 |    3:31.65   |       91207      |     107096
       6  | 23:47.72 |    3:57.60   |      107097      |     124931
Характеристики диапазона извлечения и сообщения об ошибках
Выбранный диапазон
     Имя файла D:\Masterboy - Land Of Dreaming (CDM-1996-FLAC-aZo)\Masterboy - Land Of Dreaming CDM.wav
     Пиковый уровень 97.5 %
     Качество диапазона 100.0 %
     CRC теста 3EF5ACAA
     CRC копии 3EF5ACAA
     Копирование... OK
Ошибок не произошло
AccurateRip: сводка
Трек  1  точное извлечение (доверие 6)  [D361FF76]
Трек  2  точное извлечение (доверие 6)  [9BAC31DB]
Трек  3  точное извлечение (доверие 6)  [F4508966]
Трек  4  точное извлечение (доверие 6)  [4788D2BA]
Трек  5  точное извлечение (доверие 6)  [C3071F2F]
Трек  6  точное извлечение (доверие 6)  [3F8B2688]
Все треки извлечены точно
Конец отчёта
#777Продолжительность: 00:27:56
Треклист:
01. Land Of Dreaming (Radio Mix) [00:04:06]
02. Land Of Dreaming (Extended Version) [00:06:29]
03. Land Of Dreaming (Beats) [00:01:55]
04. Land Of Dreaming (Land Of Dub) [00:07:33]
05. Land Of Dreaming (Dream Dub) [00:07:51]
Код:
Exact Audio Copy V1.0 beta 3 from 29. August 2011
Отчёт EAC об извлечении, выполненном 17. декабря 2012, 3:43
Masterboy /  Land Of Dreaming (CDM) (Japan)
Дисковод: PLEXTOR DVDR   PX-L890SA   Adapter: 2  ID: 1
Режим чтения                 : Достоверность
Использование точного потока : Да
Отключение кэша аудио        : Да
Использование указателей C2  : Нет
Коррекция смещения при чтении                     : 6
Способность читать области Lead-in и Lead-out     : Нет
Заполнение пропущенных сэмплов тишиной            : Да
Удаление блоков с тишиной в начале и конце        : Нет
При вычислениях CRC использовались нулевые сэмплы : Да
Интерфейс                                         : Встроенный Win32-интерфейс для Win NT/2000
Выходной формат          : Пользовательский кодировщик
Выбранный битрейт        : 1024 kBit/s
Качество                 : Высокий
Добавление ID3-тега      : Нет
Утилита сжатия           : C:\Program Files (x86)\FLAC\flac.exe
Дополнительные параметры :  -V -8 -T "Date=%year%" -T "Genre=%genre%" %source%
TOC извлечённого CD
     Трек |   Старт  | Длительность | Начальный сектор | Конечный сектор
    ---------------------------------------------------------------------
       1  |  0:00.00 |    4:08.60   |           0      |      18659
       2  |  4:08.60 |    6:30.55   |       18660      |      47964
       3  | 10:39.40 |    1:57.05   |       47965      |      56744
       4  | 12:36.45 |    7:35.02   |       56745      |      90871
       5  | 20:11.47 |    7:53.10   |       90872      |     126356
Характеристики диапазона извлечения и сообщения об ошибках
Выбранный диапазон
     Имя файла C:\Users\User\Desktop\Новая папка (2)\1996 - Land Of Dreaming (CDM) (Japan)\Masterboy -  1996 - Land Of Dreaming (CDM) (Japan).wav
     Пиковый уровень 99.4 %
     Скорость извлечения 7.3 X
     Качество диапазона 100.0 %
     CRC теста 213E18B8
     CRC копии 213E18B8
     Копирование... OK
Ошибок не произошло
AccurateRip: сводка
Трек  1  отсутствует в базе данных
Трек  2  отсутствует в базе данных
Трек  3  отсутствует в базе данных
Трек  4  отсутствует в базе данных
Трек  5  отсутствует в базе данных
Ни одного трека нет в базе AccurateRip
Конец отчёта
==== Контрольная сумма отчёта 54BF9B8601EB070086B7EC6528961CE7085B6A596AB9ACA62FA9E6CA801B1EED ====
#777Продолжительность: 00:34:08
Треклист:
01. Land Of Dreaming (Radio Accoustic Edit) [00:03:14]
02. Land Of Dreaming (Radio US Mix) [00:03:49]
03. Land Of Dreaming (Unit House Mix) [00:05:00]
04. Land Of Dreaming (US Mix) [00:04:59]
05. Land Of Dreaming (Unit House Rapless Mix) [00:05:13]
06. Land Of Dreaming (Cappella Club Mix) [00:06:09]
07. Land Of Dreaming (Cappella T.S.O.B. Mix (The Sound of Brescia) [00:05:42]
Код:
Exact Audio Copy V1.0 beta 3 from 29. August 2011
Отчёт EAC об извлечении, выполненном 17. декабря 2012, 3:13
Masterboy / Land of Dreaming (Remixes) (CDM)
Дисковод: PLEXTOR DVDR   PX-L890SA   Adapter: 2  ID: 1
Режим чтения                 : Достоверность
Использование точного потока : Да
Отключение кэша аудио        : Да
Использование указателей C2  : Нет
Коррекция смещения при чтении                     : 6
Способность читать области Lead-in и Lead-out     : Нет
Заполнение пропущенных сэмплов тишиной            : Да
Удаление блоков с тишиной в начале и конце        : Нет
При вычислениях CRC использовались нулевые сэмплы : Да
Интерфейс                                         : Встроенный Win32-интерфейс для Win NT/2000
Выходной формат          : Пользовательский кодировщик
Выбранный битрейт        : 1024 kBit/s
Качество                 : Высокий
Добавление ID3-тега      : Нет
Утилита сжатия           : C:\Program Files (x86)\FLAC\flac.exe
Дополнительные параметры :  -V -8 -T "Date=%year%" -T "Genre=%genre%" %source%
TOC извлечённого CD
     Трек |   Старт  | Длительность | Начальный сектор | Конечный сектор
    ---------------------------------------------------------------------
       1  |  0:00.33 |    3:15.50   |          33      |      14707
       2  |  3:16.08 |    3:50.40   |       14708      |      31997
       3  |  7:06.48 |    5:01.10   |       31998      |      54582
       4  | 12:07.58 |    5:00.00   |       54583      |      77082
       5  | 17:07.58 |    5:14.50   |       77083      |     100682
       6  | 22:22.33 |    6:10.00   |      100683      |     128432
       7  | 28:32.33 |    5:43.00   |      128433      |     154157
Характеристики диапазона извлечения и сообщения об ошибках
Выбранный диапазон
     Имя файла C:\Users\User\Desktop\Новая папка (2)\1996 - Land of Dreaming (Remixes) (CDM)\Masterboy - 1996 - Land of Dreaming (Remixes) (CDM).wav
     Пиковый уровень 98.8 %
     Скорость извлечения 7.4 X
     Качество диапазона 99.9 %
     CRC теста E10DE7F0
     CRC копии E10DE7F0
     Копирование... OK
Ошибок не произошло
AccurateRip: сводка
Трек  1  : извлечено точно (доверие 3)  [2D2A284C]  (AR v2)
Трек  2  : извлечено точно (доверие 3)  [96357C27]  (AR v2)
Трек  3  : извлечено точно (доверие 3)  [C05C431F]  (AR v2)
Трек  4  : извлечено точно (доверие 3)  [EBAF5A11]  (AR v2)
Трек  5  : извлечено точно (доверие 3)  [90B9B2D6]  (AR v2)
Трек  6  : извлечено точно (доверие 3)  [7C3334B7]  (AR v2)
Трек  7  : извлечено точно (доверие 3)  [9A520AD3]  (AR v2)
Все треки извлечены точно
Конец отчёта
==== Контрольная сумма отчёта A545E82F5F11D83C81E73834014764E04B00DCE8B6E192B97A7F080984EC0C67 ====
#777Продолжительность: 00:15:52
Треклист:
01. Mister Feeling (Radio Edit) [00:03:51]
02. Mister Feeling (Summer Holiday Mix) [00:05:54]
03. Mister Feeling (Mallorca Mix) [00:06:05]
Код:
Exact Audio Copy V1.0 beta 3 from 29. August 2011
Отчёт EAC об извлечении, выполненном 17. декабря 2012, 3:52
Masterboy / Mister Feeling (CDM)
Дисковод: PLEXTOR DVDR   PX-L890SA   Adapter: 2  ID: 1
Режим чтения                 : Достоверность
Использование точного потока : Да
Отключение кэша аудио        : Да
Использование указателей C2  : Нет
Коррекция смещения при чтении                     : 6
Способность читать области Lead-in и Lead-out     : Нет
Заполнение пропущенных сэмплов тишиной            : Да
Удаление блоков с тишиной в начале и конце        : Нет
При вычислениях CRC использовались нулевые сэмплы : Да
Интерфейс                                         : Встроенный Win32-интерфейс для Win NT/2000
Выходной формат          : Пользовательский кодировщик
Выбранный битрейт        : 1024 kBit/s
Качество                 : Высокий
Добавление ID3-тега      : Нет
Утилита сжатия           : C:\Program Files (x86)\FLAC\flac.exe
Дополнительные параметры :  -V -8 -T "Date=%year%" -T "Genre=%genre%" %source%
TOC извлечённого CD
     Трек |   Старт  | Длительность | Начальный сектор | Конечный сектор
    ---------------------------------------------------------------------
       1  |  0:00.32 |    3:53.40   |          32      |      17546
       2  |  3:53.72 |    5:56.40   |       17547      |      44286
       3  |  9:50.37 |    6:07.23   |       44287      |      71834
Характеристики диапазона извлечения и сообщения об ошибках
Выбранный диапазон
     Имя файла C:\Users\User\Desktop\Новая папка (2)\1996 - Mister Feeling (CDM)\Masterboy - 1996 - Mister Feeling (CDM).wav
     Пиковый уровень 98.3 %
     Скорость извлечения 6.2 X
     Качество диапазона 99.9 %
     CRC теста 6EE1CA29
     CRC копии 6EE1CA29
     Копирование... OK
Ошибок не произошло
AccurateRip: сводка
Трек  1  : извлечено точно (доверие 2)  [7D3C4737]  (AR v2)
Трек  2  : извлечено точно (доверие 2)  [CFB339A9]  (AR v2)
Трек  3  : извлечено точно (доверие 2)  [E2B4DE28]  (AR v2)
Все треки извлечены точно
Конец отчёта
==== Контрольная сумма отчёта CE6519E46AFD89A747A3B6B425953F0B6ABA54F8ADDEE3E1087BE9B86D10B0B0 ====
#777Продолжительность: 00:32:01
Треклист:
01. Mister Feeling (Feeling Fresh Mix (Single Version)) [00:03:49]
02. Mister Feeling (Feeling Fresh Mix (Maxi Version)) [00:06:08]
03. Mister Feeling (Feeling Fresh Mix (Instrumental Version)) [00:06:07]
04. Mister Feeling (Original Radio Edit) [00:03:53]
05. Mister Feeling (Summer Holiday Mix) [00:05:55]
06. Mister Feeling (Mallorca Mix) [00:06:07]
Код:
Exact Audio Copy V1.0 beta 3 from 29. August 2011
Отчёт EAC об извлечении, выполненном 18. декабря 2012, 0:10
Masterboy / Mister Feeling (The Remixes) (CDM)
Дисковод: PLEXTOR DVDR   PX-L890SA   Adapter: 2  ID: 1
Режим чтения                 : Достоверность
Использование точного потока : Да
Отключение кэша аудио        : Да
Использование указателей C2  : Нет
Коррекция смещения при чтении                     : 6
Способность читать области Lead-in и Lead-out     : Нет
Заполнение пропущенных сэмплов тишиной            : Да
Удаление блоков с тишиной в начале и конце        : Нет
При вычислениях CRC использовались нулевые сэмплы : Да
Интерфейс                                         : Встроенный Win32-интерфейс для Win NT/2000
Выходной формат          : Пользовательский кодировщик
Выбранный битрейт        : 1024 kBit/s
Качество                 : Высокий
Добавление ID3-тега      : Нет
Утилита сжатия           : C:\Program Files (x86)\FLAC\flac.exe
Дополнительные параметры :  -V -8 -T "Date=%year%" -T "Genre=%genre%" %source%
TOC извлечённого CD
     Трек |   Старт  | Длительность | Начальный сектор | Конечный сектор
    ---------------------------------------------------------------------
       1  |  0:00.32 |    3:49.45   |          32      |      17251
       2  |  3:50.02 |    6:09.65   |       17252      |      44991
       3  |  9:59.67 |    6:07.30   |       44992      |      72546
       4  | 16:07.22 |    3:53.50   |       72547      |      90071
       5  | 20:00.72 |    5:56.30   |       90072      |     116801
       6  | 25:57.27 |    6:07.58   |      116802      |     144384
Характеристики диапазона извлечения и сообщения об ошибках
Выбранный диапазон
     Имя файла C:\Users\User\Desktop\Новая папка (2)\1996 - Mister Feeling (The Remixes) (CDM)\Masterboy - 1996 - Mister Feeling (The Remixes) (CDM).wav
     Пиковый уровень 98.6 %
     Скорость извлечения 7.5 X
     Качество диапазона 100.0 %
     CRC теста 33BA32DB
     CRC копии 33BA32DB
     Копирование... OK
Ошибок не произошло
AccurateRip: сводка
Трек  1  отсутствует в базе данных
Трек  2  отсутствует в базе данных
Трек  3  отсутствует в базе данных
Трек  4  отсутствует в базе данных
Трек  5  отсутствует в базе данных
Трек  6  отсутствует в базе данных
Ни одного трека нет в базе AccurateRip
Конец отчёта
==== Контрольная сумма отчёта EAF5A0E722514544CA20CD9EC5A67DE760E35C04C499428F43257F6D8D55683D ====
#777Продолжительность: 00:16:00
Треклист:
01. Show Me Colours (Radio Edit) [00:03:34]
02. Show Me Colours (Maxi Mix) [00:06:07]
03. Show Me Colours (B-Side Mix) [00:06:18]
Код:
Exact Audio Copy V1.0 beta 2 from 29. April 2011
EAC extraction logfile from 23. May 2012, 20:50
Masterboy / Show Me Colours
Used drive  : ASUS    DRW-24B1LT   Adapter: 1  ID: 1
Read mode               : Secure
Utilize accurate stream : Yes
Defeat audio cache      : Yes
Make use of C2 pointers : No
Read offset correction                      : 6
Overread into Lead-In and Lead-Out          : No
Fill up missing offset samples with silence : Yes
Delete leading and trailing silent blocks   : No
Null samples used in CRC calculations       : Yes
Used interface                              : Native Win32 interface for Win NT & 2000
Used output format              : User Defined Encoder
Selected bitrate                : 1024 kBit/s
Quality                         : High
Add ID3 tag                     : No
Command line compressor         : C:\Program Files\Exact Audio Copy 1.00b2\Flac\flac.exe
Additional command line options : -8 -V %source%
TOC of the extracted CD
     Track |   Start  |  Length  | Start sector | End sector
    ---------------------------------------------------------
        1  |  0:00.00 |  3:35.10 |         0    |    16134
        2  |  3:35.10 |  6:08.22 |     16135    |    43756
        3  |  9:43.32 |  6:19.68 |     43757    |    72249
Range status and errors
Selected range
     Filename F:\rip-FLACMUSIC.RU\Masterboy - Show Me Colours.wav
     Peak level 98.1 %
     Extraction speed 4.1 X
     Range quality 100.0 %
     Test CRC 4395C539
     Copy CRC 4395C539
     Copy OK
No errors occurred
AccurateRip summary
Track  1  accurately ripped (confidence 2)  [3F209766]  (AR v2)
Track  2  accurately ripped (confidence 2)  [F8D966F9]  (AR v2)
Track  3  accurately ripped (confidence 2)  [4B352445]  (AR v2)
All tracks accurately ripped
End of status report
==== Log checksum 0B6EF732D09021D08A358C085010C0EFA80E0065859B150929473B0A0594DF13 ====
#777Продолжительность: 00:22:26
Треклист:
01. Show Me Colours (Good Friends Single Mix) [00:03:49]
02. Show Me Colours (Good Friends Intrumental Mix) [00:06:10]
03. Show Me Colours (Big Club Mix) [00:06:15]
04. Show Me Colours (Good Friends Vocal Mix) [00:06:10]
Код:
Exact Audio Copy V1.0 beta 3 from 29. August 2011
Отчёт EAC об извлечении, выполненном 18. декабря 2012, 0:22
Masterboy / Show Me Colours (The Remixes) (CDM)
Дисковод: PLEXTOR DVDR   PX-L890SA   Adapter: 2  ID: 1
Режим чтения                 : Достоверность
Использование точного потока : Да
Отключение кэша аудио        : Да
Использование указателей C2  : Нет
Коррекция смещения при чтении                     : 6
Способность читать области Lead-in и Lead-out     : Нет
Заполнение пропущенных сэмплов тишиной            : Да
Удаление блоков с тишиной в начале и конце        : Нет
При вычислениях CRC использовались нулевые сэмплы : Да
Интерфейс                                         : Встроенный Win32-интерфейс для Win NT/2000
Выходной формат          : Пользовательский кодировщик
Выбранный битрейт        : 1024 kBit/s
Качество                 : Высокий
Добавление ID3-тега      : Нет
Утилита сжатия           : C:\Program Files (x86)\FLAC\flac.exe
Дополнительные параметры :  -V -8 -T "Date=%year%" -T "Genre=%genre%" %source%
TOC извлечённого CD
     Трек |   Старт  | Длительность | Начальный сектор | Конечный сектор
    ---------------------------------------------------------------------
       1  |  0:00.32 |    3:51.55   |          32      |      17411
       2  |  3:52.12 |    6:10.58   |       17412      |      45219
       3  | 10:02.70 |    6:16.52   |       45220      |      73471
       4  | 16:19.47 |    6:12.05   |       73472      |     101376
Характеристики диапазона извлечения и сообщения об ошибках
Выбранный диапазон
     Имя файла C:\Users\User\Desktop\Новая папка (2)\1996 - Show Me Colours (The Remixes) (CDM)\Masterboy - 1996 - Show Me Colours (The Remixes) (CDM).wav
     Пиковый уровень 98.2 %
     Скорость извлечения 7.3 X
     Качество диапазона 100.0 %
     CRC теста 3EF5E9D0
     CRC копии 3EF5E9D0
     Копирование... OK
Ошибок не произошло
AccurateRip: сводка
Трек  1  : извлечено точно (доверие 2)  [038D43E0]  (AR v1)
Трек  2  : извлечено точно (доверие 2)  [D7B7673B]  (AR v1)
Трек  3  : извлечено точно (доверие 2)  [94D5A899]  (AR v1)
Трек  4  : извлечено точно (доверие 2)  [F61A703E]  (AR v1)
Все треки извлечены точно
Конец отчёта
==== Контрольная сумма отчёта E4A45AF9635808B5B825E465A199334C117A387996396F517EC19920F8DF1820 ====
#777Продолжительность: 00:12:52
Треклист:
01. Just For You (Gospel Air Mix) [00:03:42]
02. Just For You (Ballad Mix) [00:03:20]
03. Just For You (DJ Dolphin Mix) [00:05:49]
Код:
Exact Audio Copy V1.0 beta 3 from 29. August 2011
Отчёт EAC об извлечении, выполненном 17. декабря 2012, 4:58
Masterboy / Just For You (CDM)
Дисковод: PLEXTOR DVDR   PX-L890SA   Adapter: 2  ID: 1
Режим чтения                 : Достоверность
Использование точного потока : Да
Отключение кэша аудио        : Да
Использование указателей C2  : Нет
Коррекция смещения при чтении                     : 6
Способность читать области Lead-in и Lead-out     : Нет
Заполнение пропущенных сэмплов тишиной            : Да
Удаление блоков с тишиной в начале и конце        : Нет
При вычислениях CRC использовались нулевые сэмплы : Да
Интерфейс                                         : Встроенный Win32-интерфейс для Win NT/2000
Выходной формат          : Пользовательский кодировщик
Выбранный битрейт        : 1024 kBit/s
Качество                 : Высокий
Добавление ID3-тега      : Нет
Утилита сжатия           : C:\Program Files (x86)\FLAC\flac.exe
Дополнительные параметры :  -V -8 -T "Date=%year%" -T "Genre=%genre%" %source%
TOC извлечённого CD
     Трек |   Старт  | Длительность | Начальный сектор | Конечный сектор
    ---------------------------------------------------------------------
       1  |  0:00.00 |    3:44.70   |           0      |      16869
       2  |  3:44.70 |    3:21.45   |       16870      |      31989
       3  |  7:06.40 |    5:50.55   |       31990      |      58294
Характеристики диапазона извлечения и сообщения об ошибках
Выбранный диапазон
     Имя файла C:\Users\User\Desktop\Новая папка (2)\1997 - Just For You (CDM)\Masterboy - 1997 - Just For You (CDM).wav
     Пиковый уровень 98.2 %
     Скорость извлечения 6.2 X
     Качество диапазона 100.0 %
     CRC теста 16B9ABC3
     CRC копии 16B9ABC3
     Копирование... OK
Ошибок не произошло
AccurateRip: сводка
Трек  1  : извлечено точно (доверие 3)  [EA390617]  (AR v2)
Трек  2  : извлечено точно (доверие 3)  [9E70E114]  (AR v2)
Трек  3  : извлечено точно (доверие 2)  [CB3C3B8A]  (AR v2)
Все треки извлечены точно
Конец отчёта
==== Контрольная сумма отчёта 46E67F528CE2B4F13CD3ADB78CD8E916DDC4396F420D2DB9C012573BE2CD62C6 ====
#777Продолжительность: 00:19:07
Треклист:
01. La Ola Hand in Hand (Radio Edit) [00:03:41]
02. Set Me Free (Radio Edit) [00:03:37]
03. La Ola Hand in Hand (Club Mix) [00:05:13]
04. Set Me Free (Club Mix) [00:06:35]
Код:
Exact Audio Copy V1.0 beta 1 from 15. November 2010
EAC extraction logfile from 19. February 2011, 10:03
Masterboy / La Ola Hand In Hand
Used drive  : ASUS    DRW-24B1LT   Adapter: 1  ID: 1
Read mode               : Secure
Utilize accurate stream : Yes
Defeat audio cache      : Yes
Make use of C2 pointers : No
Read offset correction                      : 6
Overread into Lead-In and Lead-Out          : No
Fill up missing offset samples with silence : Yes
Delete leading and trailing silent blocks   : No
Null samples used in CRC calculations       : Yes
Used interface                              : Native Win32 interface for Win NT & 2000
Used output format              : User Defined Encoder
Selected bitrate                : 1024 kBit/s
Quality                         : High
Add ID3 tag                     : No
Command line compressor         : C:\Program Files\Exact Audio Copy 1.00b1\Flac\flac.exe
Additional command line options : -8 -V %s
TOC of the extracted CD
     Track |   Start  |  Length  | Start sector | End sector
    ---------------------------------------------------------
        1  |  0:00.00 |  3:42.60 |         0    |    16709
        2  |  3:42.60 |  3:39.05 |     16710    |    33139
        3  |  7:21.65 |  5:14.20 |     33140    |    56709
        4  | 12:36.10 |  6:36.52 |     56710    |    86461
Range status and errors
Selected range
     Filename F:\!!EAC Lossless\Masterboy - (S)1997 La Ola Hand In Hand (CDM)\Masterboy - La Ola Hand In Hand.wav
     Peak level 98.2 %
     Extraction speed 1.5 X
     Range quality 100.0 %
     Test CRC 7AD4610B
     Copy CRC 7AD4610B
     Copy OK
No errors occurred
AccurateRip summary
Track  1  accurately ripped (confidence 3)  [51E2AB8B]
Track  2  accurately ripped (confidence 3)  [447099EF]
Track  3  accurately ripped (confidence 3)  [77C5FF33]
Track  4  accurately ripped (confidence 3)  [97A33691]
All tracks accurately ripped
End of status report
==== Log checksum 8BBB28E2975970BA4B3F2B7CF10C637FD5A6BC8872A3D76A6235A98901A334D2 ====
#777Продолжительность: 00:18:41
Треклист:
01. Dancin' Forever (Radio Edit) [00:03:50]
02. Dancin' Forever (Club Mix) [00:06:20]
03. Dancin' Forever (Disco Mix) [00:05:07]
04. Just For You (Ballad Mix) [00:03:23]
Код:
Exact Audio Copy V0.99 prebeta 4 from 23. January 2008
Отчёт EAC об извлечении, выполненном 4. февраля 2009, 13:20
Masterboy / Dancin' Forever CDM
Дисковод: HL-DT-STDVD-RW GCA-4080N   Adapter: 0  ID: 2
Режим чтения                 : Достоверность
Использование точного потока : Да
Отключение кэша аудио        : Да
Использование указателей C2  : Нет
Коррекция смещения при чтении                     : 667
Способность читать области Lead-in и Lead-out     : Нет
Заполнение пропущенных сэмплов тишиной            : Да
Удаление блоков с тишиной в начале и конце        : Нет
При вычислениях CRC использовались нулевые сэмплы : Да
Интерфейс                                         : Установленный внешний ASPI-интерфейс
Выходной формат : Внутренние WAV-операции
Формат сэмплов  : 44.100 Гц; 16 бит; стерео
TOC извлечённого CD
     Трек |   Старт  | Длительность | Начальный сектор | Конечный сектор
    ---------------------------------------------------------------------
       1  |  0:00.00 |    3:51.40   |           0      |      17364
       2  |  3:51.40 |    6:22.66   |       17365      |      46080
       3  | 10:14.31 |    5:09.14   |       46081      |      69269
       4  | 15:23.45 |    3:24.40   |       69270      |      84609
Характеристики диапазона извлечения и сообщения об ошибках
Выбранный диапазон
     Имя файла D:\Masterboy - Dancin' Forever (CDM-1998-FLAC-aZo)\Masterboy - Dancin' Forever CDM.wav
     Пиковый уровень 99.7 %
     Качество диапазона 100.0 %
     CRC теста 2129606A
     CRC копии 2129606A
     Копирование... OK
Ошибок не произошло
AccurateRip: сводка
Трек  1  нет в базе данных
Трек  2  нет в базе данных
Трек  3  нет в базе данных
Трек  4  нет в базе данных
Ни одного трека нет в базе AccurateRip
Конец отчёта
#777Продолжительность: 00:24:19
Треклист:
01. Porque Te Vas (Radio Mix) [00:03:26]
02. Porque Te Vas (Summer Mix) [00:04:27]
03. Porque Te Vas (D.O.N.S. Remix) [00:07:02]
04. Porque Te Vas (Toolbox Radio Edit) [00:03:35]
05. Make Me Feel Good [00:05:47]
Код:
Exact Audio Copy V1.0 beta 3 from 29. August 2011
Отчёт EAC об извлечении, выполненном 17. декабря 2012, 4:08
Masterboy / Porque Te Vas (CDM)
Дисковод: PLEXTOR DVDR   PX-L890SA   Adapter: 2  ID: 1
Режим чтения                 : Достоверность
Использование точного потока : Да
Отключение кэша аудио        : Да
Использование указателей C2  : Нет
Коррекция смещения при чтении                     : 6
Способность читать области Lead-in и Lead-out     : Нет
Заполнение пропущенных сэмплов тишиной            : Да
Удаление блоков с тишиной в начале и конце        : Нет
При вычислениях CRC использовались нулевые сэмплы : Да
Интерфейс                                         : Встроенный Win32-интерфейс для Win NT/2000
Выходной формат          : Пользовательский кодировщик
Выбранный битрейт        : 1024 kBit/s
Качество                 : Высокий
Добавление ID3-тега      : Нет
Утилита сжатия           : C:\Program Files (x86)\FLAC\flac.exe
Дополнительные параметры :  -V -8 -T "Date=%year%" -T "Genre=%genre%" %source%
TOC извлечённого CD
     Трек |   Старт  | Длительность | Начальный сектор | Конечный сектор
    ---------------------------------------------------------------------
       1  |  0:00.00 |    3:26.02   |           0      |      15451
       2  |  3:26.02 |    4:27.70   |       15452      |      35546
       3  |  7:53.72 |    7:02.53   |       35547      |      67249
       4  | 14:56.50 |    3:35.22   |       67250      |      83396
       5  | 18:31.72 |    5:47.45   |       83397      |     109466
Характеристики диапазона извлечения и сообщения об ошибках
Выбранный диапазон
     Имя файла C:\Users\User\Desktop\Новая папка (2)\1999 - Porque Te Vas (CDM)\Masterboy - 1999 - Porque Te Vas (CDM).wav
     Пиковый уровень 98.4 %
     Скорость извлечения 7.7 X
     Качество диапазона 100.0 %
     CRC теста 2605B243
     CRC копии 2605B243
     Копирование... OK
Ошибок не произошло
AccurateRip: сводка
Трек  1  : извлечено точно (доверие 9)  [E36BCD27]  (AR v1)
Трек  2  : извлечено точно (доверие 9)  [A66D8560]  (AR v1)
Трек  3  : извлечено точно (доверие 9)  [DE7B2C45]  (AR v1)
Трек  4  : извлечено точно (доверие 9)  [1ABCCBC2]  (AR v1)
Трек  5  : извлечено точно (доверие 9)  [C4FCC6C3]  (AR v1)
Все треки извлечены точно
Конец отчёта
==== Контрольная сумма отчёта 3FE0F8C5DE1045C8D5EC18884B9F1B583727700CF448AEEE5B5E95F32AD920E3 ====
#777Продолжительность: 00:23:12
Треклист:
01. Feel The Heat 2000 (Radio Edit) [00:03:19]
02. Feel The Heat 2000 (Extended Mix) [00:05:49]
03. Feel The Heat 2000 (Trance Club Mix) [00:06:46]
04. Feel The Heat 2000 (Webtress Miami to Copacabana Club Mix) [00:07:16]
Код:
Exact Audio Copy V0.99 prebeta 5 from 4. May 2009
Отчёт EAC об извлечении, выполненном 6. декабря 2009, 12:12
Masterboy / Feel The Heat 2000
Дисковод: PHILIPS DVDR1660P1   Adapter: 1  ID: 1
Режим чтения                 : Достоверность
Использование точного потока : Да
Отключение кэша аудио        : Да
Использование указателей C2  : Нет
Коррекция смещения при чтении                     : 618
Способность читать области Lead-in и Lead-out     : Нет
Заполнение пропущенных сэмплов тишиной            : Да
Удаление блоков с тишиной в начале и конце        : Нет
При вычислениях CRC использовались нулевые сэмплы : Да
Интерфейс                                         : Встроенный Win32-интерфейс для Win NT/2000
Выходной формат : Внутренние WAV-операции
Формат сэмплов  : 44.100 Гц; 16 бит; стерео
TOC извлечённого CD
     Трек |   Старт  | Длительность | Начальный сектор | Конечный сектор
    ---------------------------------------------------------------------
       1  |  0:00.00 |    3:21.30   |           0      |      15104
       2  |  3:21.30 |    5:51.05   |       15105      |      41434
       3  |  9:12.35 |    6:48.27   |       41435      |      72061
       4  | 16:00.62 |    7:17.63   |       72062      |     104899
Характеристики диапазона извлечения и сообщения об ошибках
Выбранный диапазон
     Имя файла F:\Downloads\Masterboy - Feel The Heat 2000 (CDM-2000-Flac)\Masterboy - Feel The Heat 2000.wav
     Пиковый уровень 100.0 %
     Качество диапазона 99.9 %
     CRC теста 7C62BF6E
     CRC копии 7C62BF6E
     Копирование... OK
Ошибок не произошло
AccurateRip: сводка
Трек  1  точное извлечение (доверие 1)  [5452D781]
Трек  2  точное извлечение (доверие 1)  [2FDA0FD3]
Трек  3  точное извлечение (доверие 1)  [6EA438FC]
Трек  4  точное извлечение (доверие 1)  [BB49DE1A]
Все треки извлечены точно
Конец отчёта
#777Продолжительность: 00:43:08
Треклист:
01. I Like To Like It (Radio Edit) [00:03:40]
02. I Like To Like It (Light Mix) [00:03:29]
03. I Like To Like It (Euro Cut) [00:03:34]
04. I Like To Like It (MB Clubversion) [00:06:17]
05. I Like To Like It (Extended Euro) [00:05:50]
06. I Like To Like It (Klubbingman Remix) [00:06:57]
07. I Like To Like It (DJ Shah's Journey To UK Remix) [00:06:25]
08. I Like To Like It (Sm-Trax In Trance Remix) [00:06:52]
Код:
Exact Audio Copy V0.99 prebeta 4 from 23. January 2008
Отчёт EAC об извлечении, выполненном 7. мая 2009, 22:27
Masterboy / I Like To Like It CDM
Дисковод: HL-DT-STDVD-RW GCA-4080N   Adapter: 0  ID: 2
Режим чтения                 : Достоверность
Использование точного потока : Да
Отключение кэша аудио        : Да
Использование указателей C2  : Нет
Коррекция смещения при чтении                     : 667
Способность читать области Lead-in и Lead-out     : Нет
Заполнение пропущенных сэмплов тишиной            : Да
Удаление блоков с тишиной в начале и конце        : Нет
При вычислениях CRC использовались нулевые сэмплы : Да
Интерфейс                                         : Установленный внешний ASPI-интерфейс
Выходной формат : Внутренние WAV-операции
Формат сэмплов  : 44.100 Гц; 16 бит; стерео
TOC извлечённого CD
     Трек |   Старт  | Длительность | Начальный сектор | Конечный сектор
    ---------------------------------------------------------------------
       1  |  0:00.00 |    3:42.37   |           0      |      16686
       2  |  3:42.37 |    3:30.58   |       16687      |      32494
       3  |  7:13.20 |    3:36.35   |       32495      |      48729
       4  | 10:49.55 |    6:18.40   |       48730      |      77119
       5  | 17:08.20 |    5:54.32   |       77120      |     103701
       6  | 23:02.52 |    6:59.23   |      103702      |     135149
       7  | 30:02.00 |    6:27.05   |      135150      |     164179
       8  | 36:29.05 |    6:54.02   |      164180      |     195231
Характеристики диапазона извлечения и сообщения об ошибках
Выбранный диапазон
     Имя файла D:\Masterboy - I Like To Like It CDM\Masterboy - I Like To Like It CDM.wav
     Пиковый уровень 99.9 %
     Качество диапазона 100.0 %
     CRC теста 83382007
     CRC копии 83382007
     Копирование... OK
Ошибок не произошло
AccurateRip: сводка
Трек  1  точное извлечение (доверие 1)  [2848ADC4]
Трек  2  точное извлечение (доверие 1)  [6800F314]
Трек  3  точное извлечение (доверие 1)  [2C4342F8]
Трек  4  точное извлечение (доверие 1)  [AD5C3AB7]
Трек  5  точное извлечение (доверие 1)  [25D9706C]
Трек  6  точное извлечение (доверие 1)  [9944307A]
Трек  7  точное извлечение (доверие 1)  [70F6821E]
Трек  8  точное извлечение (доверие 1)  [36F0E337]
Все треки извлечены точно
Конец отчёта
#777Продолжительность: 00:19:21
Треклист:
01. Ride Like The Wind (Radio Cut) [00:03:45]
02. Ride Like The Wind (Radio Club Cut) [00:04:22]
03. Ride Like The Wind (Extended Version) [00:06:18]
04. Alright [00:04:55]
Код:
Exact Audio Copy V1.0 beta 2 from 29. April 2011
Отчёт EAC об извлечении, выполненном 21. апреля 2012, 13:58
Masterboy / Ride Like The Wind
Дисковод: Optiarc DVD RW AD-7200S   Adapter: 2  ID: 0
Режим чтения                 : Достоверность
Использование точного потока : Да
Отключение кэша аудио        : Да
Использование указателей C2  : Нет
Коррекция смещения при чтении                     : 48
Способность читать области Lead-in и Lead-out     : Нет
Заполнение пропущенных сэмплов тишиной            : Да
Удаление блоков с тишиной в начале и конце        : Нет
При вычислениях CRC использовались нулевые сэмплы : Да
Интерфейс                                         : Встроенный Win32-интерфейс для Win NT/2000
Выходной формат : Внутренние WAV-операции
Формат сэмплов  : 44.100 Гц; 16 бит; стерео
TOC извлечённого CD
     Трек |   Старт  | Длительность | Начальный сектор | Конечный сектор
    ---------------------------------------------------------------------
       1  |  0:00.00 |    3:45.25   |           0      |      16899
       2  |  3:45.25 |    4:22.25   |       16900      |      36574
       3  |  8:07.50 |    6:18.62   |       36575      |      64986
       4  | 14:26.37 |    4:55.27   |       64987      |      87138
Характеристики диапазона извлечения и сообщения об ошибках
Выбранный диапазон
     Имя файла C:\Documents and Settings\vova\Рабочий стол\Masterboy - Ride Like The Wind.wav
     Пиковый уровень 98.3 %
     Скорость извлечения 3.3 X
     Качество диапазона 100.0 %
     CRC теста EFAAF540
     CRC копии EFAAF540
     Копирование... OK
Ошибок не произошло
AccurateRip: сводка
Трек  1  отсутствует в базе данных
Трек  2  отсутствует в базе данных
Трек  3  отсутствует в базе данных
Трек  4  отсутствует в базе данных
Ни одного трека нет в базе AccurateRip
Конец отчёта
#777Продолжительность: 00:36:34
Треклист:
01. I Need A Lover Tonight (Video Edit) [00:04:02]
02. I Need A Lover Tonight (Club Edit) [00:03:53]
03. I Need A Lover Tonight (Pulsedriver Remix) [00:06:18]
04. I Need A Lover Tonight (DJs @ Work Remix [00:07:02]
05. I Need A Lover Tonight (Klubbingman vs. DJ Shah Remix) [00:07:55]
06. I Need A Lover Tonight (Original Club Mix) [00:07:21]
! Диск содержит мультимедиа-контент (CD-Extra)
Код:
[b]Качество[/b]: VCD
[b]Формат[/b]: MPG
[b]Видео кодек[/b]: MPEG1
[b]Аудио кодек[/b]: MPEG Audio Layer2
[b]Видео[/b]:  352x288 25.00fps 3555 Kbps
[b]Аудио[/b]:  44100Hz stereo 384 Kbps
[url=https://fastpic.ru/view/33/2013/0427/8899501b9dddf62a7cd1332f71c84709.jpg.html][img]http://i33.fastpic.ru/thumb/2013/0427/09/8899501b9dddf62a7cd1332f71c84709.jpeg[/img][/url][url=https://fastpic.ru/view/46/2013/0427/f540c915825fe3b3319c67e21411cb7e.jpg.html][img]http://i46.fastpic.ru/thumb/2013/0427/7e/f540c915825fe3b3319c67e21411cb7e.jpeg[/img][/url]
Код:
Exact Audio Copy V1.0 beta 3 from 29. August 2011
Отчёт EAC об извлечении, выполненном 17. декабря 2012, 2:47
Masterboy / I Need A Lover Tonight (CDM)
Дисковод: PLEXTOR DVDR   PX-L890SA   Adapter: 2  ID: 1
Режим чтения                 : Достоверность
Использование точного потока : Да
Отключение кэша аудио        : Да
Использование указателей C2  : Нет
Коррекция смещения при чтении                     : 6
Способность читать области Lead-in и Lead-out     : Нет
Заполнение пропущенных сэмплов тишиной            : Да
Удаление блоков с тишиной в начале и конце        : Нет
При вычислениях CRC использовались нулевые сэмплы : Да
Интерфейс                                         : Встроенный Win32-интерфейс для Win NT/2000
Выходной формат          : Пользовательский кодировщик
Выбранный битрейт        : 1024 kBit/s
Качество                 : Высокий
Добавление ID3-тега      : Нет
Утилита сжатия           : C:\Program Files (x86)\FLAC\flac.exe
Дополнительные параметры :  -V -8 -T "Date=%year%" -T "Genre=%genre%" %source%
TOC извлечённого CD
     Трек |   Старт  | Длительность | Начальный сектор | Конечный сектор
    ---------------------------------------------------------------------
       1  |  0:00.00 |    4:04.10   |           0      |      18309
       2  |  4:04.10 |    3:55.25   |       18310      |      35959
       3  |  7:59.35 |    6:20.50   |       35960      |      64509
       4  | 14:20.10 |    7:04.37   |       64510      |      96346
       5  | 21:24.47 |    7:57.00   |       96347      |     132121
       6  | 29:21.47 |    7:22.64   |      132122      |     165335
       7  | 39:16.36 |   16:00.20   |      176736      |     248755
Характеристики диапазона извлечения и сообщения об ошибках
Выбранный диапазон
     Имя файла C:\Users\User\Desktop\Новая папка (2)\2002 - I Need A Lover Tonight (CDM)\Masterboy - 2002 - I Need A Lover Tonight (CDM).wav
     Пиковый уровень 100.0 %
     Скорость извлечения 7.7 X
     Качество диапазона 99.9 %
     CRC теста CE8FAAE0
     CRC копии CE8FAAE0
     Копирование... OK
Ошибок не произошло
AccurateRip: сводка
Трек  1  отсутствует в базе данных
Трек  2  отсутствует в базе данных
Трек  3  отсутствует в базе данных
Трек  4  отсутствует в базе данных
Трек  5  отсутствует в базе данных
Трек  6  отсутствует в базе данных
Ни одного трека нет в базе AccurateRip
Конец отчёта
==== Контрольная сумма отчёта 45A7FB0692CEC4FA437025DE227123344304ED6D3958AC8E981D1FEF577F6516 ====
#777Продолжительность: 00:29:12
Треклист:
01. Feel The Heat Of The Night 2003 (2003 Radio Cut) [00:03:34]
02. Feel The Heat Of The Night 2003 (Special D. Edit) [00:03:28]
03. Feel The Heat Of The Night 2003 (2003 Club Mix) [00:07:36]
04. Feel The Heat Of The Night 2003 (Special D. Remix) [00:07:31]
05. Feel The Heat Of The Night 2003 (Mesalla Remix) [00:07:01]
Код:
Exact Audio Copy V0.99 prebeta 4 from 23. January 2008
Отчёт EAC об извлечении, выполненном 4. февраля 2009, 13:03
Masterboy / Feel The Heat Of The Night 2003 CDM
Дисковод: HL-DT-STDVD-RW GCA-4080N   Adapter: 0  ID: 2
Режим чтения                 : Достоверность
Использование точного потока : Да
Отключение кэша аудио        : Да
Использование указателей C2  : Нет
Коррекция смещения при чтении                     : 667
Способность читать области Lead-in и Lead-out     : Нет
Заполнение пропущенных сэмплов тишиной            : Да
Удаление блоков с тишиной в начале и конце        : Нет
При вычислениях CRC использовались нулевые сэмплы : Да
Интерфейс                                         : Установленный внешний ASPI-интерфейс
Выходной формат : Внутренние WAV-операции
Формат сэмплов  : 44.100 Гц; 16 бит; стерео
TOC извлечённого CD
     Трек |   Старт  | Длительность | Начальный сектор | Конечный сектор
    ---------------------------------------------------------------------
       1  |  0:00.00 |    3:36.25   |           0      |      16224
       2  |  3:36.25 |    3:29.55   |       16225      |      31954
       3  |  7:06.05 |    7:38.20   |       31955      |      66324
       4  | 14:44.25 |    7:33.00   |       66325      |     100299
       5  | 22:17.25 |    7:02.53   |      100300      |     132002
Характеристики диапазона извлечения и сообщения об ошибках
Выбранный диапазон
     Имя файла D:\Masterboy - Feel The Heat Of The Night 2003 (CDM-2003-FLAC-aZo)\Masterboy - Feel The Heat Of The Night 2003 CDM.wav
     Пиковый уровень 98.3 %
     Качество диапазона 100.0 %
     CRC теста B67ADBA9
     CRC копии B67ADBA9
     Копирование... OK
Ошибок не произошло
AccurateRip: сводка
Трек  1  точное извлечение (доверие 1)  [9F0793F7]
Трек  2  точное извлечение (доверие 1)  [33AAB2DD]
Трек  3  нет в базе данных
Трек  4  нет в базе данных
Трек  5  нет в базе данных
 2 трек(и) скопированы точно
 3 трек(и) не содержатся в базе AccurateRip
Некоторые треки не прошли проверку на точность
Конец отчёта
Правила, инструкции, FAQ!!!
Торрент  Добавлен [23 май 2019, 20:02] Скачать торрент Магнет ссылка
Скачать торрент
[ Размер 50.27 КБ / Просмотров 5 ]

Статус
Проверен 
 
Размер  7.05 ГБ
Приватный: Нет (DHT включён)
.torrent скачан  0
Как залить торрент? | Как скачать Torrent? | Ошибка в торренте? Качайте магнет  


     Отправить личное сообщение
   
Страница 1 из 1
Показать сообщения за:  Поле сортировки  
Начать новую тему Ответить на тему


Сейчас этот форум просматривают: нет зарегистрированных пользователей и гости: 0


Вы не можете начинать темы
Вы не можете отвечать на сообщения
Вы не можете редактировать свои сообщения
Вы не можете удалять свои сообщения
Вы не можете добавлять вложения

Перейти:  
Ресурс не предоставляет электронные версии произведений, а занимается лишь коллекционированием и каталогизацией ссылок, присылаемых и публикуемых на форуме нашими читателями. Если вы являетесь правообладателем какого-либо представленного материала и не желаете чтобы ссылка на него находилась в нашем каталоге, свяжитесь с нами и мы незамедлительно удалим её. Файлы для обмена на трекере предоставлены пользователями сайта, и администрация не несёт ответственности за их содержание. Просьба не заливать файлы, защищенные авторскими правами, а также файлы нелегального содержания!
cron