Начать новую тему Ответить на тему
Статистика раздачи
Размер: 379.21 МБ | Добавлен: 23 май 2019, 20:05 | Скачали: 0
Сидеров: 0  [0 байт/сек]    Личеров: 0  [0 байт/сек]
Пред. тема | След. тема 

Автор
Сообщение

СообщениеДобавлено: 23 май 2019, 20:05 

Ответить с цитатой 

Various Artists - Dance Dance Dance - vol.6
Жанр: Eurodance
Год выпуска диска: 1996
Производитель диска: Болгария
Аудио кодек: APE
Тип рипа: image+.cue
Битрейт аудио: lossless
Продолжительность: 58:50
Трэклист:
01. Time Spirits feat. DJ Zesar - The Palace
02. Grandmaster Flash - If U Wanna Party
03. Partyfloor - Immer Bum Bum
04. Paspar-2 feat. Fresh & MC J. - Me Fantasy
05. Denis - Baby In The House
06. Detune - Move Your Body
07. G-Groove - Everybody
08. Beatbusters - Ding Ding Dong
09. Marco Marcelo - Muevete
10. Liberty - Melody In Motion (Rmx)
11. Spiritual Air - Mystic Air
Exact Audio Copy V0.99 prebeta 5 from 4. May 2009
Отчёт EAC об извлечении, выполненном 21. ноября 2009, 13:36
VA / Dance Dance Dance - vol.6
Дисковод: Optiarc DVD RW AD-7203S Adapter: 3 ID: 0
Режим чтения : Достоверность
Использование точного потока : Да
Отключение кэша аудио : Да
Использование указателей C2 : Нет
Коррекция смещения при чтении : 48
Способность читать области Lead-in и Lead-out : Нет
Заполнение пропущенных сэмплов тишиной : Да
Удаление блоков с тишиной в начале и конце : Нет
При вычислениях CRC использовались нулевые сэмплы : Да
Интерфейс : Встроенный Win32-интерфейс для Win NT/2000
Выходной формат : Внутренние WAV-операции
Формат сэмплов : 44.100 Гц; 16 бит; стерео
TOC извлечённого CD
Трек | Старт | Длительность | Начальный сектор | Конечный сектор
---------------------------------------------------------------------
1 | 0:00.00 | 6:50.03 | 0 | 30752
2 | 6:50.03 | 5:46.37 | 30753 | 56739
3 | 12:36.40 | 6:23.16 | 56740 | 85480
4 | 18:59.56 | 5:59.42 | 85481 | 112447
5 | 24:59.23 | 3:20.23 | 112448 | 127470
6 | 28:19.46 | 4:50.30 | 127471 | 149250
7 | 33:10.01 | 3:50.30 | 149251 | 166530
8 | 37:00.31 | 6:28.39 | 166531 | 195669
9 | 43:28.70 | 4:52.68 | 195670 | 217637
10 | 48:21.63 | 5:39.72 | 217638 | 243134
11 | 54:01.60 | 4:48.35 | 243135 | 264769
Характеристики диапазона извлечения и сообщения об ошибках
Выбранный диапазон
Имя файла F:\Disktor\Eurodance\Dance Dance Dance - Vol.6\VA - Dance Dance Dance - vol.6.wav
Пиковый уровень 93.8 %
Качество диапазона 100.0 %
CRC копии 8B49D6B9
Копирование... OK
Ошибок не произошло
AccurateRip: сводка
Трек 1 нет в базе данных
Трек 2 нет в базе данных
Трек 3 нет в базе данных
Трек 4 нет в базе данных
Трек 5 нет в базе данных
Трек 6 нет в базе данных
Трек 7 нет в базе данных
Трек 8 нет в базе данных
Трек 9 нет в базе данных
Трек 10 нет в базе данных
Трек 11 нет в базе данных
Ни одного трека нет в базе AccurateRip
Конец отчёта
AUDIOCHECKER v2.0 beta (build 457) - by Dester - opdester@freemail.hu
~~~~~~~~~~~~~~~~~~~~~~~~~~~~~~~~~~
Started at: суббота, 21. 11. 2009. - 13:46.37
1 file found
1 -===- F:\Disktor\Eurodance\Dance Dance Dance - Vol.6\VA - Dance Dance Dance - vol.6.ape
Extracted successfully
Conclusion: this track is CDDA with probability 100%
Tempfile successfully deleted.
Finished at: суббота, 21. 11. 2009. - 13:52.03 (operation time: 0:05.26)
Правила, инструкции, FAQ!!!
Торрент  Добавлен [23 май 2019, 20:05] Скачать торрент Магнет ссылка
Скачать торрент
[ Размер 15.65 КБ / Просмотров 3 ]

Статус
Проверен 
 
Размер  379.21 МБ
Приватный: Нет (DHT включён)
.torrent скачан  0
Как залить торрент? | Как скачать Torrent? | Ошибка в торренте? Качайте магнет  


     Отправить личное сообщение
   
Страница 1 из 1
Показать сообщения за:  Поле сортировки  
Начать новую тему Ответить на тему


Сейчас этот форум просматривают: нет зарегистрированных пользователей и гости: 0


Вы не можете начинать темы
Вы не можете отвечать на сообщения
Вы не можете редактировать свои сообщения
Вы не можете удалять свои сообщения
Вы не можете добавлять вложения

Перейти:  
Ресурс не предоставляет электронные версии произведений, а занимается лишь коллекционированием и каталогизацией ссылок, присылаемых и публикуемых на форуме нашими читателями. Если вы являетесь правообладателем какого-либо представленного материала и не желаете чтобы ссылка на него находилась в нашем каталоге, свяжитесь с нами и мы незамедлительно удалим её. Файлы для обмена на трекере предоставлены пользователями сайта, и администрация не несёт ответственности за их содержание. Просьба не заливать файлы, защищенные авторскими правами, а также файлы нелегального содержания!
cron