Начать новую тему Ответить на тему
Статистика раздачи
Размер: 169.82 МБ | Добавлен: 23 май 2019, 20:02 | Скачали: 0
Сидеров: 0  [0 байт/сек]    Личеров: 0  [0 байт/сек]
Пред. тема | След. тема 

Автор
Сообщение

СообщениеДобавлено: 23 май 2019, 20:02 

Ответить с цитатой 

Damage Control - Trust (CDM)

Жанр: Eurodance
Страна-производитель диска: Germany
Год издания диска: 1995
Издатель (лейбл): WEA
Номер по каталогу: 0630 11041-2
Страна: Germany
Аудио кодек: FLAC (*.flac)
Тип рипа: image+.cue
Битрейт аудио: lossless
Продолжительность: 00:15:42
Источник (релизер): собственный рип
Наличие сканов в содержимом раздачи: да
Треклист:
1 Trust (7" Radio Mix) 3:40
2 Trust (12" Club Mix) 5:50
3 Trust (Go To Rave Mix) 6:00
Код:
Exact Audio Copy V0.99 prebeta 5 from 4. May 2009
Отчёт EAC об извлечении, выполненном 28. января 2011, 22:29
Damage Control / Trust
Дисковод: PHILIPS DVDR1660P1   Adapter: 1  ID: 1
Режим чтения                 : Достоверность
Использование точного потока : Да
Отключение кэша аудио        : Да
Использование указателей C2  : Нет
Коррекция смещения при чтении                     : 618
Способность читать области Lead-in и Lead-out     : Нет
Заполнение пропущенных сэмплов тишиной            : Да
Удаление блоков с тишиной в начале и конце        : Нет
При вычислениях CRC использовались нулевые сэмплы : Да
Интерфейс                                         : Встроенный Win32-интерфейс для Win NT/2000
Выходной формат : Внутренние WAV-операции
Формат сэмплов  : 44.100 Гц; 16 бит; стерео
TOC извлечённого CD
     Трек |   Старт  | Длительность | Начальный сектор | Конечный сектор
    ---------------------------------------------------------------------
       1  |  0:00.00 |    3:57.45   |           0      |      17819
       2  |  3:57.45 |    5:48.12   |       17820      |      43931
       3  |  9:45.57 |    5:56.20   |       43932      |      70651
Характеристики диапазона извлечения и сообщения об ошибках
Выбранный диапазон
     Имя файла F:\Downloads\Damage Control - Trust (CDM-1995-Flac)\Damage Control - Trust.wav
     Пиковый уровень 97.7 %
     Качество диапазона 100.0 %
     CRC теста 5CE03FE1
     CRC копии 5CE03FE1
     Копирование... OK
Ошибок не произошло
AccurateRip: сводка
Трек  1  нет в базе данных
Трек  2  нет в базе данных
Трек  3  нет в базе данных
Ни одного трека нет в базе AccurateRip
Конец отчёта

Доп. информация: Рип мой,с оригинального диска из моей коллекции.Сканы обложки и диска внутри торрeнта (600 dpi,PNG).Приятного прослушивания!
Правила, инструкции, FAQ!!!
Торрент  Добавлен [23 май 2019, 20:02] Скачать торрент Магнет ссылка
Скачать торрент
[ Размер 14.09 КБ / Просмотров 4 ]

Статус
Проверен 
 
Размер  169.82 МБ
Приватный: Нет (DHT включён)
.torrent скачан  0
Как залить торрент? | Как скачать Torrent? | Ошибка в торренте? Качайте магнет  


     Отправить личное сообщение
   
Страница 1 из 1
Показать сообщения за:  Поле сортировки  
Начать новую тему Ответить на тему


Сейчас этот форум просматривают: нет зарегистрированных пользователей и гости: 0


Вы не можете начинать темы
Вы не можете отвечать на сообщения
Вы не можете редактировать свои сообщения
Вы не можете удалять свои сообщения
Вы не можете добавлять вложения

Перейти:  
Ресурс не предоставляет электронные версии произведений, а занимается лишь коллекционированием и каталогизацией ссылок, присылаемых и публикуемых на форуме нашими читателями. Если вы являетесь правообладателем какого-либо представленного материала и не желаете чтобы ссылка на него находилась в нашем каталоге, свяжитесь с нами и мы незамедлительно удалим её. Файлы для обмена на трекере предоставлены пользователями сайта, и администрация не несёт ответственности за их содержание. Просьба не заливать файлы, защищенные авторскими правами, а также файлы нелегального содержания!
cron