Начать новую тему Ответить на тему
Статистика раздачи
Размер: 368.38 МБ | Добавлен: 23 май 2019, 20:05 | Скачали: 0
Сидеров: 0  [0 байт/сек]    Личеров: 0  [0 байт/сек]
Пред. тема | След. тема 

Автор
Сообщение

СообщениеДобавлено: 23 май 2019, 20:05 

Ответить с цитатой 

Colonia / Najbolje od svega
Жанр: Eurodance
Страна-производитель диска: Россия
Год издания диска: 2006
Издатель (лейбл): Танцевальный Рай
Номер по каталогу: ТР-277
Страна: Хорватия
Аудио кодек: APE (*.ape)
Тип рипа: image+.cue
Битрейт аудио: lossless
Продолжительность: 52:13
Источник (релизер): собственный диск
Наличие сканов в содержимом раздачи: нет
Треклист:
01.Najbolje od svega
02.Nema nade
03.Time
04.Sad te ima sad te nema
05.Tako sexy
06.Meni treba ljubav
07.Tako kratko te znam
08.Drugi čovjek
09.Padaju domine
10.Ni traga ni glasa
11.Varalico
12.Nema nade(Harem remix)
13.Time(Eurodance remix)
Код:
Exact Audio Copy V0.99 prebeta 5 from 4. May 2009
Отчёт EAC об извлечении, выполненном 2. марта 2011, 7:25
Colonia / Najbolje Od Svega
Дисковод: HL-DT-STDVDRAM GE20NU10   Adapter: 3  ID: 1
Режим чтения                 : Достоверность
Использование точного потока : Да
Отключение кэша аудио        : Да
Использование указателей C2  : Нет
Коррекция смещения при чтении                     : 667
Способность читать области Lead-in и Lead-out     : Нет
Заполнение пропущенных сэмплов тишиной            : Да
Удаление блоков с тишиной в начале и конце        : Нет
При вычислениях CRC использовались нулевые сэмплы : Да
Интерфейс                                         : Встроенный Win32-интерфейс для Win NT/2000
Выходной формат : Внутренние WAV-операции
Формат сэмплов  : 44.100 Гц; 16 бит; стерео
TOC извлечённого CD
     Трек |   Старт  | Длительность | Начальный сектор | Конечный сектор
    ---------------------------------------------------------------------
       1  |  0:00.00 |    4:15.73   |           0      |      19197
       2  |  4:15.73 |    4:27.34   |       19198      |      39256
       3  |  8:43.32 |    4:04.13   |       39257      |      57569
       4  | 12:47.45 |    3:35.60   |       57570      |      73754
       5  | 16:23.30 |    5:00.48   |       73755      |      96302
       6  | 21:24.03 |    3:16.28   |       96303      |     111030
       7  | 24:40.31 |    4:05.05   |      111031      |     129410
       8  | 28:45.36 |    3:35.33   |      129411      |     145568
       9  | 32:20.69 |    3:30.27   |      145569      |     161345
      10  | 35:51.21 |    3:34.33   |      161346      |     177428
      11  | 39:25.54 |    3:38.13   |      177429      |     193791
      12  | 43:03.67 |    4:37.66   |      193792      |     214632
      13  | 47:41.58 |    4:31.10   |      214633      |     234967
      14  | 54:44.68 |   19:13.07   |      246368      |     332849
Характеристики диапазона извлечения и сообщения об ошибках
Выбранный диапазон
     Имя файла C:\...\Colonia - Najbolje Od Svega.wav
     Пиковый уровень 98.8 %
     Качество диапазона 100.0 %
     CRC теста 34CDC526
     CRC копии 34CDC526
     Копирование... OK
Ошибок не произошло
Конец отчёта
Правила, инструкции, FAQ!!!
Торрент  Добавлен [23 май 2019, 20:05] Скачать торрент Магнет ссылка
Скачать торрент
[ Размер 15.01 КБ / Просмотров 2 ]

Статус
Проверен 
 
Размер  368.38 МБ
Приватный: Нет (DHT включён)
.torrent скачан  0
Как залить торрент? | Как скачать Torrent? | Ошибка в торренте? Качайте магнет  


     Отправить личное сообщение
   
Страница 1 из 1
Показать сообщения за:  Поле сортировки  
Начать новую тему Ответить на тему


Сейчас этот форум просматривают: нет зарегистрированных пользователей и гости: 0


Вы не можете начинать темы
Вы не можете отвечать на сообщения
Вы не можете редактировать свои сообщения
Вы не можете удалять свои сообщения
Вы не можете добавлять вложения

Перейти:  
Ресурс не предоставляет электронные версии произведений, а занимается лишь коллекционированием и каталогизацией ссылок, присылаемых и публикуемых на форуме нашими читателями. Если вы являетесь правообладателем какого-либо представленного материала и не желаете чтобы ссылка на него находилась в нашем каталоге, свяжитесь с нами и мы незамедлительно удалим её. Файлы для обмена на трекере предоставлены пользователями сайта, и администрация не несёт ответственности за их содержание. Просьба не заливать файлы, защищенные авторскими правами, а также файлы нелегального содержания!
cron