Начать новую тему Ответить на тему
Статистика раздачи
Размер: 347.9 МБ | Добавлен: 23 май 2019, 20:06 | Скачали: 0
Сидеров: 0  [0 байт/сек]    Личеров: 0  [0 байт/сек]
Пред. тема | След. тема 

Автор
Сообщение

СообщениеДобавлено: 23 май 2019, 20:06 

Ответить с цитатой 

Carlito aka Dr. Bombay aka Dr. Macdoo aka Jonny Jakobsen - World Wild
Жанр: Eurodance
Страна-производитель диска: Japan
Год издания диска: 2007
Издатель (лейбл): Dreamusic Inc.
Номер по каталогу: MUCX-1006
Продолжительность: 45:09
Аудио кодек: FLAC (*.flac)
Тип рипа: image+.cue
Битрейт аудио: lossless
Наличие сканов в содержимом раздачи: нет
Рип сделан DJ Sergeich с его оригинального диска, за что ему большое спасибо.
Треклист:
1. Russkij Pusskij 3:05
2. Sukiyaki Teriyaki 3:05
3. Be my Pharaoh 2:58
4. Americo 3:28
5. Africa 3:26
6. All Around the World 3:36
7. Bolero 3:12
8. Jamaica 3:35
9. Crazy Carlito 2:56
10. Final Call 2:54
11. Holiday 3:33
12. Backpack Girl 3:27
13. Samba de Janerio 3:12
14. Home Sweet Home 2:40
Код:
Exact Audio Copy V0.99 prebeta 5 from 4. May 2009
EAC extraction logfile from 16. September 2010, 18:32
Carlito / World Wild
Used drive  : SlimtypeDVD A  DS8A3S   Adapter: 1  ID: 0
Read mode               : Secure
Utilize accurate stream : Yes
Defeat audio cache      : Yes
Make use of C2 pointers : No
Read offset correction                      : 6
Overread into Lead-In and Lead-Out          : No
Fill up missing offset samples with silence : Yes
Delete leading and trailing silent blocks   : No
Null samples used in CRC calculations       : Yes
Used interface                              : Native Win32 interface for Win NT & 2000
Used output format              : User Defined Encoder
Selected bitrate                : 192 kBit/s
Quality                         : High
Add ID3 tag                     : No
Command line compressor         : C:\Program Files\Exact Audio Copy\Flac\flac.exe
Additional command line options : -8  -V  -T "ARTIST=%a"  -T "TITLE=%t"  -T "ALBUM=%g"  -T "DATE=%y"  -T "TRACKNUMBER=%n"  -T "GENRE=%m"  -T "COMMENT=EAC FLAC -8" %s
TOC of the extracted CD
     Track |   Start  |  Length  | Start sector | End sector
    ---------------------------------------------------------
        1  |  0:00.00 |  3:05.26 |         0    |    13900
        2  |  3:05.26 |  3:05.24 |     13901    |    27799
        3  |  6:10.50 |  2:58.18 |     27800    |    41167
        4  |  9:08.68 |  3:28.28 |     41168    |    56795
        5  | 12:37.21 |  3:25.63 |     56796    |    72233
        6  | 16:03.09 |  3:36.23 |     72234    |    88456
        7  | 19:39.32 |  3:11.46 |     88457    |   102827
        8  | 22:51.03 |  3:35.22 |    102828    |   118974
        9  | 26:26.25 |  2:55.74 |    118975    |   132173
       10  | 29:22.24 |  2:54.06 |    132174    |   145229
       11  | 32:16.30 |  3:33.17 |    145230    |   161221
       12  | 35:49.47 |  3:27.05 |    161222    |   176751
       13  | 39:16.52 |  3:12.20 |    176752    |   191171
       14  | 42:28.72 |  2:39.63 |    191172    |   203159
Range status and errors
Selected range
     Filename C:\!!!\Carlito - World Wild.wav
     Peak level 98.8 %
     Range quality 99.9 %
     Test CRC F6A523AB
     Copy CRC F6A523AB
     Copy OK
No errors occurred
AccurateRip summary
Track  1  accurately ripped (confidence 1)  [49AEBC27]
Track  2  accurately ripped (confidence 1)  [5DBE1682]
Track  3  accurately ripped (confidence 1)  [D8C141DE]
Track  4  accurately ripped (confidence 1)  [6FFB7819]
Track  5  accurately ripped (confidence 1)  [40393072]
Track  6  accurately ripped (confidence 1)  [AE971E9E]
Track  7  accurately ripped (confidence 1)  [4F131E4C]
Track  8  accurately ripped (confidence 1)  [08790756]
Track  9  accurately ripped (confidence 1)  [A8DBD273]
Track 10  accurately ripped (confidence 1)  [3F8DBADC]
Track 11  accurately ripped (confidence 1)  [0C8642B3]
Track 12  accurately ripped (confidence 1)  [CCAECFF5]
Track 13  accurately ripped (confidence 1)  [7FF6DC8B]
Track 14  accurately ripped (confidence 1)  [C11008D9]
All tracks accurately ripped
End of status report
Правила, инструкции, FAQ!!!
Торрент  Добавлен [23 май 2019, 20:06] Скачать торрент Магнет ссылка
Скачать торрент
[ Размер 14.17 КБ / Просмотров 4 ]

Статус
Проверен 
 
Размер  347.9 МБ
Приватный: Нет (DHT включён)
.torrent скачан  0
Как залить торрент? | Как скачать Torrent? | Ошибка в торренте? Качайте магнет  


     Отправить личное сообщение
   
Страница 1 из 1
Показать сообщения за:  Поле сортировки  
Начать новую тему Ответить на тему


Сейчас этот форум просматривают: нет зарегистрированных пользователей и гости: 0


Вы не можете начинать темы
Вы не можете отвечать на сообщения
Вы не можете редактировать свои сообщения
Вы не можете удалять свои сообщения
Вы не можете добавлять вложения

Перейти:  
Ресурс не предоставляет электронные версии произведений, а занимается лишь коллекционированием и каталогизацией ссылок, присылаемых и публикуемых на форуме нашими читателями. Если вы являетесь правообладателем какого-либо представленного материала и не желаете чтобы ссылка на него находилась в нашем каталоге, свяжитесь с нами и мы незамедлительно удалим её. Файлы для обмена на трекере предоставлены пользователями сайта, и администрация не несёт ответственности за их содержание. Просьба не заливать файлы, защищенные авторскими правами, а также файлы нелегального содержания!
cron