Начать новую тему Ответить на тему
Статистика раздачи
Размер: 1.09 ГБ | Добавлен: 23 май 2019, 20:03 | Скачали: 0
Сидеров: 0  [0 байт/сек]    Личеров: 0  [0 байт/сек]
Пред. тема | След. тема 

Автор
Сообщение

СообщениеДобавлено: 23 май 2019, 20:03 

Ответить с цитатой 

2 Brothers On The 4th Floor / The Very Best Of (2CD)
Жанр: Eurodance
Носитель: CD
Страна-производитель диска (релиза): EU
Год издания: 2016
Издатель (лейбл): Cornelis Music
Номер по каталогу: 22 604418 2
Страна исполнителя (группы): NL
Аудиокодек: FLAC (*.flac)
Тип рипа: image+.cue
Битрейт аудио: lossless
Продолжительность: 02:34:11
Источник (релизер): usenet
Наличие сканов в содержимом раздачи: да
2 Brothers On the 4th Floor - Dreams 2016
CD1 Radio Hits
01. Can't Help Myself (Extended Intro Version) (4:31)
02. Turn Da Music Up (Radio Version) (4:39)
03. Never Alone (Euro Radio Mix) (4:13)
04. Dreams (Will Come Alive) (4:24)
05. Let Me Be Free (3:27)
06. Fly (Through The Starry Night) (3:29)
07. Come Take My Hand (4:05)
08. Fairytailes (3:31)
09. Mirror Of Love (3:30)
10. There's A Key (3:57)
11. One Day (3:16)
12. I'm Thinkin' Of U (3:28)
13. Do You Know? (3:44)
14. The Sun Will Be Shining (3:16)
15. Heaven Is Here (3:34)
16. Living In Cyberspace (3:48)
17. Wonderful Feeling (4:01)
18. Stand Up And Live (Dj Jose vs. G-Spot Remix) (3:33)
19. Shine Like A Star (Previously Unreleased) (3:38)
20. Dreams (Will Come Alive) (Fragiel Acoustic Version) (3:49)
Код:
Exact Audio Copy V1.1 from 23. June 2015
EAC extraction logfile from 7. May 2016, 10:12
2 Brothers On The 4th Floor / The Very Best Of (CD1 Radio Hits)
Used drive  : HL-DT-STDVDRAM GH24NSD1   Adapter: 0  ID: 0
Read mode               : Secure
Utilize accurate stream : Yes
Defeat audio cache      : Yes
Make use of C2 pointers : No
Read offset correction                      : 6
Overread into Lead-In and Lead-Out          : No
Fill up missing offset samples with silence : Yes
Delete leading and trailing silent blocks   : No
Null samples used in CRC calculations       : Yes
Used interface                              : Installed external ASPI interface
Used output format : Internal WAV Routines
Sample format      : 44.100 Hz; 16 Bit; Stereo
TOC of the extracted CD
     Track |   Start  |  Length  | Start sector | End sector
    ---------------------------------------------------------
        1  |  0:00.00 |  4:30.59 |         0    |    20308
        2  |  4:30.59 |  4:38.70 |     20309    |    41228
        3  |  9:09.54 |  4:13.05 |     41229    |    60208
        4  | 13:22.59 |  4:24.12 |     60209    |    80020
        5  | 17:46.71 |  3:27.33 |     80021    |    95578
        6  | 21:14.29 |  3:29.17 |     95579    |   111270
        7  | 24:43.46 |  4:04.42 |    111271    |   129612
        8  | 28:48.13 |  3:31.10 |    129613    |   145447
        9  | 32:19.23 |  3:30.30 |    145448    |   161227
       10  | 35:49.53 |  3:57.34 |    161228    |   179036
       11  | 39:47.12 |  3:15.66 |    179037    |   193727
       12  | 43:03.03 |  3:27.52 |    193728    |   209304
       13  | 46:30.55 |  3:43.59 |    209305    |   226088
       14  | 50:14.39 |  3:16.28 |    226089    |   240816
       15  | 53:30.67 |  3:34.02 |    240817    |   256868
       16  | 57:04.69 |  3:48.07 |    256869    |   273975
       17  | 60:53.01 |  4:00.73 |    273976    |   292048
       18  | 64:53.74 |  3:33.06 |    292049    |   308029
       19  | 68:27.05 |  3:38.05 |    308030    |   324384
       20  | 72:05.10 |  3:49.22 |    324385    |   341581
Range status and errors
Selected range
     Filename E:\SPOTNET\2 Brothers On The 4Th Floor - Very Best Of (EAC)\CD1 Radio Hits\2 Brothers On The 4th Floor - The Very Best Of (CD1 Radio Hits).wav
     Peak level 96.6 %
     Extraction speed 8.1 X
     Range quality 100.0 %
     Test CRC C24FD37B
     Copy CRC C24FD37B
     Copy OK
No errors occurred
AccurateRip summary
Track  1  not present in database
Track  2  not present in database
Track  3  not present in database
Track  4  not present in database
Track  5  not present in database
Track  6  not present in database
Track  7  not present in database
Track  8  not present in database
Track  9  not present in database
Track 10  not present in database
Track 11  not present in database
Track 12  not present in database
Track 13  not present in database
Track 14  not present in database
Track 15  not present in database
Track 16  not present in database
Track 17  not present in database
Track 18  not present in database
Track 19  not present in database
Track 20  not present in database
None of the tracks are present in the AccurateRip database
End of status report
Код:
REM GENRE Dance
REM DATE 2016
REM DISCID 2211CA14
REM COMMENT "ExactAudioCopy v1.1"
PERFORMER "2 Brothers On The 4th Floor"
TITLE "The Very Best Of (CD1 Radio Hits)"
FILE "2 Brothers On The 4th Floor - The Very Best Of (CD1 Radio Hits).wav" WAVE
  TRACK 01 AUDIO
    TITLE "Can't Help Myself (Extended Intro Version)"
    PERFORMER "2 Brothers On The 4th Floor"
    INDEX 01 00:00:00
  TRACK 02 AUDIO
    TITLE "Turn Da Music Up (Radio Version)"
    PERFORMER "2 Brothers On The 4th Floor"
    INDEX 00 04:29:59
    INDEX 01 04:30:59
  TRACK 03 AUDIO
    TITLE "Never Alone (Euro Radio Mix)"
    PERFORMER "2 Brothers On The 4th Floor"
    INDEX 00 09:08:54
    INDEX 01 09:09:54
  TRACK 04 AUDIO
    TITLE "Dreams (Will Come Alive)"
    PERFORMER "2 Brothers On The 4th Floor"
    INDEX 00 13:21:59
    INDEX 01 13:22:59
  TRACK 05 AUDIO
    TITLE "Let Me Be Free"
    PERFORMER "2 Brothers On The 4th Floor"
    INDEX 00 17:45:71
    INDEX 01 17:46:71
  TRACK 06 AUDIO
    TITLE "Fly (Through The Starry Night)"
    PERFORMER "2 Brothers On The 4th Floor"
    INDEX 00 21:13:29
    INDEX 01 21:14:29
  TRACK 07 AUDIO
    TITLE "Come Take My Hand"
    PERFORMER "2 Brothers On The 4th Floor"
    INDEX 00 24:42:46
    INDEX 01 24:43:46
  TRACK 08 AUDIO
    TITLE "Fairytailes"
    PERFORMER "2 Brothers On The 4th Floor"
    INDEX 00 28:47:13
    INDEX 01 28:48:13
  TRACK 09 AUDIO
    TITLE "Mirror Of Love"
    PERFORMER "2 Brothers On The 4th Floor"
    INDEX 00 32:18:23
    INDEX 01 32:19:23
  TRACK 10 AUDIO
    TITLE "There's A Key"
    PERFORMER "2 Brothers On The 4th Floor"
    INDEX 00 35:48:53
    INDEX 01 35:49:53
  TRACK 11 AUDIO
    TITLE "One Day"
    PERFORMER "2 Brothers On The 4th Floor"
    INDEX 00 39:46:12
    INDEX 01 39:47:12
  TRACK 12 AUDIO
    TITLE "I'm Thinkin' Of U"
    PERFORMER "2 Brothers On The 4th Floor"
    INDEX 00 43:02:03
    INDEX 01 43:03:03
  TRACK 13 AUDIO
    TITLE "Do You Know?"
    PERFORMER "2 Brothers On The 4th Floor"
    INDEX 00 46:29:55
    INDEX 01 46:30:55
  TRACK 14 AUDIO
    TITLE "The Sun Will Be Shining"
    PERFORMER "2 Brothers On The 4th Floor"
    INDEX 00 50:13:39
    INDEX 01 50:14:39
  TRACK 15 AUDIO
    TITLE "Heaven Is Here"
    PERFORMER "2 Brothers On The 4th Floor"
    INDEX 00 53:29:67
    INDEX 01 53:30:67
  TRACK 16 AUDIO
    TITLE "Living In Cyberspace"
    PERFORMER "2 Brothers On The 4th Floor"
    INDEX 00 57:03:69
    INDEX 01 57:04:69
  TRACK 17 AUDIO
    TITLE "Wonderful Feeling"
    PERFORMER "2 Brothers On The 4th Floor"
    INDEX 00 60:52:01
    INDEX 01 60:53:01
  TRACK 18 AUDIO
    TITLE "Stand Up And Live (Dj Jose vs. G-Spot Remix)"
    PERFORMER "2 Brothers On The 4th Floor"
    INDEX 00 64:52:74
    INDEX 01 64:53:74
  TRACK 19 AUDIO
    TITLE "Shine Like A Star (Previously Unreleased)"
    PERFORMER "2 Brothers On The 4th Floor"
    INDEX 00 68:26:05
    INDEX 01 68:27:05
  TRACK 20 AUDIO
    TITLE "Dreams (Will Come Alive) (Fragiel Acoustic Version)"
    PERFORMER "2 Brothers On The 4th Floor"
    INDEX 00 72:04:10
    INDEX 01 72:05:10
Код:
fooCDtect - foobar2000 + auCDtect, baralgin.
auCDtect: CD records authenticity detector, version 0.8.2
Copyright (c) 2004 Oleg Berngardt. All rights reserved.
Copyright (c) 2004 Alexander Djourik. All rights reserved.
     mode: 0
===========================================
    Track: 01. 2 Brothers On The 4th Floor - Can't Help Myself (Extended Intro Version)
Processing file: [01. 2 Brothers On The 4th Floor - Can't Help Myself (Extended Intro Version).aucdtect]
Detected average hi-boundary frequency: 2.027473e+004 Hz
Detected average lo-boundary frequency: 1.299982e+004 Hz
Detected average hi-cut frequency: 2.129540e+004 Hz
Detected average lo-cut frequency: 1.176589e+004 Hz
Maximum probablis boundary frequency: 2.189100e+004 Hz
Coefficient of nonlinearity of a phase: 3.682749e-001
First order smothness: 4.023424e-001
Second order smothness: 5.263520e-001
------------------------------------------------------------
This track looks like CDDA with probability 100%
===========================================
    Track: 02. 2 Brothers On The 4th Floor - Turn Da Music Up (Radio Version)
Processing file: [02. 2 Brothers On The 4th Floor - Turn Da Music Up (Radio Version).aucdtect]
Detected average hi-boundary frequency: 2.031045e+004 Hz
Detected average lo-boundary frequency: 1.253320e+004 Hz
Detected average hi-cut frequency: 2.156156e+004 Hz
Detected average lo-cut frequency: 1.120251e+004 Hz
Maximum probablis boundary frequency: 2.189100e+004 Hz
Coefficient of nonlinearity of a phase: 2.185462e-001
First order smothness: 4.155801e-001
Second order smothness: 4.884654e-001
------------------------------------------------------------
This track looks like CDDA with probability 100%
===========================================
    Track: 03. 2 Brothers On The 4th Floor - Never Alone (Euro Radio Mix)
Processing file: [03. 2 Brothers On The 4th Floor - Never Alone (Euro Radio Mix).aucdtect]
Detected average hi-boundary frequency: 2.075595e+004 Hz
Detected average lo-boundary frequency: 1.553549e+004 Hz
Detected average hi-cut frequency: 2.163280e+004 Hz
Detected average lo-cut frequency: 1.607079e+004 Hz
Maximum probablis boundary frequency: 2.189100e+004 Hz
Coefficient of nonlinearity of a phase: 2.287575e-001
First order smothness: 4.196165e-001
Second order smothness: 6.102507e-001
------------------------------------------------------------
This track looks like CDDA with probability 99%
===========================================
    Track: 04. 2 Brothers On The 4th Floor - Dreams (Will Come Alive)
Processing file: [04. 2 Brothers On The 4th Floor - Dreams (Will Come Alive).aucdtect]
Detected average hi-boundary frequency: 2.016431e+004 Hz
Detected average lo-boundary frequency: 1.438884e+004 Hz
Detected average hi-cut frequency: 2.157709e+004 Hz
Detected average lo-cut frequency: 1.329501e+004 Hz
Maximum probablis boundary frequency: 2.168700e+004 Hz
Coefficient of nonlinearity of a phase: 6.287289e-001
First order smothness: 3.439490e-001
Second order smothness: 4.789827e-001
------------------------------------------------------------
This track looks like CDDA with probability 100%
===========================================
    Track: 05. 2 Brothers On The 4th Floor - Let Me Be Free
Processing file: [05. 2 Brothers On The 4th Floor - Let Me Be Free.aucdtect]
Detected average hi-boundary frequency: 1.983982e+004 Hz
Detected average lo-boundary frequency: 1.332063e+004 Hz
Detected average hi-cut frequency: 2.162966e+004 Hz
Detected average lo-cut frequency: 1.129213e+004 Hz
Maximum probablis boundary frequency: 2.189100e+004 Hz
Coefficient of nonlinearity of a phase: 3.235133e-001
First order smothness: 3.186120e-001
Second order smothness: 3.331833e-001
------------------------------------------------------------
This track looks like CDDA with probability 100%
===========================================
    Track: 06. 2 Brothers On The 4th Floor - Fly (Through The Starry Night)
Processing file: [06. 2 Brothers On The 4th Floor - Fly (Through The Starry Night).aucdtect]
Detected average hi-boundary frequency: 2.022406e+004 Hz
Detected average lo-boundary frequency: 1.310784e+004 Hz
Detected average hi-cut frequency: 2.163495e+004 Hz
Detected average lo-cut frequency: 1.300871e+004 Hz
Maximum probablis boundary frequency: 2.189100e+004 Hz
Coefficient of nonlinearity of a phase: 2.599989e-001
First order smothness: 3.506029e-001
Second order smothness: 5.171952e-001
------------------------------------------------------------
This track looks like CDDA with probability 100%
===========================================
    Track: 07. 2 Brothers On The 4th Floor - Come Take My Hand
Processing file: [07. 2 Brothers On The 4th Floor - Come Take My Hand.aucdtect]
Detected average hi-boundary frequency: 1.981066e+004 Hz
Detected average lo-boundary frequency: 1.314050e+004 Hz
Detected average hi-cut frequency: 2.181319e+004 Hz
Detected average lo-cut frequency: 1.243280e+004 Hz
Maximum probablis boundary frequency: 2.189100e+004 Hz
Coefficient of nonlinearity of a phase: 5.638651e-002
First order smothness: 3.095147e-001
Second order smothness: 5.238459e-001
------------------------------------------------------------
This track looks like CDDA with probability 100%
===========================================
    Track: 08. 2 Brothers On The 4th Floor - Fairytailes
Processing file: [08. 2 Brothers On The 4th Floor - Fairytailes.aucdtect]
Detected average hi-boundary frequency: 2.034145e+004 Hz
Detected average lo-boundary frequency: 1.319884e+004 Hz
Detected average hi-cut frequency: 2.167834e+004 Hz
Detected average lo-cut frequency: 1.568172e+004 Hz
Maximum probablis boundary frequency: 2.189100e+004 Hz
Coefficient of nonlinearity of a phase: 7.959568e-001
First order smothness: 3.504425e-001
Second order smothness: 7.066372e-001
------------------------------------------------------------
This track looks like CDDA with probability 100%
===========================================
    Track: 09. 2 Brothers On The 4th Floor - Mirror Of Love
Processing file: [09. 2 Brothers On The 4th Floor - Mirror Of Love.aucdtect]
Detected average hi-boundary frequency: 2.011592e+004 Hz
Detected average lo-boundary frequency: 1.299035e+004 Hz
Detected average hi-cut frequency: 2.150178e+004 Hz
Detected average lo-cut frequency: 1.312404e+004 Hz
Maximum probablis boundary frequency: 2.189100e+004 Hz
Coefficient of nonlinearity of a phase: 4.818544e-001
First order smothness: 3.130551e-001
Second order smothness: 6.336590e-001
------------------------------------------------------------
This track looks like CDDA with probability 100%
===========================================
    Track: 10. 2 Brothers On The 4th Floor - There's A Key
Processing file: [10. 2 Brothers On The 4th Floor - There's A Key.aucdtect]
Detected average hi-boundary frequency: 2.011503e+004 Hz
Detected average lo-boundary frequency: 1.343453e+004 Hz
Detected average hi-cut frequency: 2.134343e+004 Hz
Detected average lo-cut frequency: 1.120122e+004 Hz
Maximum probablis boundary frequency: 2.189100e+004 Hz
Coefficient of nonlinearity of a phase: 9.272412e-001
First order smothness: 2.850963e-001
Second order smothness: 6.417617e-001
------------------------------------------------------------
This track looks like CDDA with probability 100%
===========================================
    Track: 11. 2 Brothers On The 4th Floor - One Day
Processing file: [11. 2 Brothers On The 4th Floor - One Day.aucdtect]
Detected average hi-boundary frequency: 2.045292e+004 Hz
Detected average lo-boundary frequency: 1.296070e+004 Hz
Detected average hi-cut frequency: 2.129261e+004 Hz
Detected average lo-cut frequency: 1.317735e+004 Hz
Maximum probablis boundary frequency: 2.155200e+004 Hz
Coefficient of nonlinearity of a phase: 2.341238e-001
First order smothness: 4.136450e-001
Second order smothness: 5.634542e-001
------------------------------------------------------------
This track looks like CDDA with probability 100%
===========================================
    Track: 12. 2 Brothers On The 4th Floor - I'm Thinkin' Of U
Processing file: [12. 2 Brothers On The 4th Floor - I'm Thinkin' Of U.aucdtect]
Detected average hi-boundary frequency: 2.015761e+004 Hz
Detected average lo-boundary frequency: 1.325845e+004 Hz
Detected average hi-cut frequency: 2.160010e+004 Hz
Detected average lo-cut frequency: 1.054580e+004 Hz
Maximum probablis boundary frequency: 2.189100e+004 Hz
Coefficient of nonlinearity of a phase: 4.110840e-001
First order smothness: 3.540261e-001
Second order smothness: 3.963113e-001
------------------------------------------------------------
This track looks like CDDA with probability 100%
===========================================
    Track: 13. 2 Brothers On The 4th Floor - Do You Know
Processing file: [13. 2 Brothers On The 4th Floor - Do You Know.aucdtect]
Detected average hi-boundary frequency: 2.046970e+004 Hz
Detected average lo-boundary frequency: 1.309040e+004 Hz
Detected average hi-cut frequency: 2.129574e+004 Hz
Detected average lo-cut frequency: 1.414167e+004 Hz
Maximum probablis boundary frequency: 2.189100e+004 Hz
Coefficient of nonlinearity of a phase: 1.417729e-001
First order smothness: 3.866388e-001
Second order smothness: 6.398164e-001
------------------------------------------------------------
This track looks like CDDA with probability 99%
===========================================
    Track: 14. 2 Brothers On The 4th Floor - The Sun Will Be Shining
Processing file: [14. 2 Brothers On The 4th Floor - The Sun Will Be Shining.aucdtect]
Detected average hi-boundary frequency: 2.021964e+004 Hz
Detected average lo-boundary frequency: 1.312099e+004 Hz
Detected average hi-cut frequency: 2.135351e+004 Hz
Detected average lo-cut frequency: 1.156549e+004 Hz
Maximum probablis boundary frequency: 2.189100e+004 Hz
Coefficient of nonlinearity of a phase: 5.377230e-001
First order smothness: 3.236554e-001
Second order smothness: 4.588291e-001
------------------------------------------------------------
This track looks like CDDA with probability 100%
===========================================
    Track: 15. 2 Brothers On The 4th Floor - Heaven Is Here
Processing file: [15. 2 Brothers On The 4th Floor - Heaven Is Here.aucdtect]
Detected average hi-boundary frequency: 2.038094e+004 Hz
Detected average lo-boundary frequency: 1.409376e+004 Hz
Detected average hi-cut frequency: 2.143115e+004 Hz
Detected average lo-cut frequency: 9.297222e+003 Hz
Maximum probablis boundary frequency: 2.189100e+004 Hz
Coefficient of nonlinearity of a phase: 7.987505e-002
First order smothness: 3.793103e-001
Second order smothness: 5.338280e-001
------------------------------------------------------------
This track looks like CDDA with probability 100%
===========================================
    Track: 16. 2 Brothers On The 4th Floor - Living In Cyberspace
Processing file: [16. 2 Brothers On The 4th Floor - Living In Cyberspace.aucdtect]
Detected average hi-boundary frequency: 2.035679e+004 Hz
Detected average lo-boundary frequency: 1.418383e+004 Hz
Detected average hi-cut frequency: 2.170329e+004 Hz
Detected average lo-cut frequency: 1.337823e+004 Hz
Maximum probablis boundary frequency: 2.189100e+004 Hz
Coefficient of nonlinearity of a phase: 1.268942e-001
First order smothness: 4.038462e-001
Second order smothness: 5.302782e-001
------------------------------------------------------------
This track looks like CDDA with probability 100%
===========================================
    Track: 17. 2 Brothers On The 4th Floor - Wonderful Feeling
Processing file: [17. 2 Brothers On The 4th Floor - Wonderful Feeling.aucdtect]
Detected average hi-boundary frequency: 2.032100e+004 Hz
Detected average lo-boundary frequency: 1.451376e+004 Hz
Detected average hi-cut frequency: 2.170625e+004 Hz
Detected average lo-cut frequency: 9.259111e+003 Hz
Maximum probablis boundary frequency: 2.189100e+004 Hz
Coefficient of nonlinearity of a phase: 8.135136e-002
First order smothness: 3.745159e-001
Second order smothness: 4.512006e-001
------------------------------------------------------------
This track looks like CDDA with probability 100%
===========================================
    Track: 18. 2 Brothers On The 4th Floor - Stand Up And Live (Dj Jose vs. G-Spot Remix)
Processing file: [18. 2 Brothers On The 4th Floor - Stand Up And Live (Dj Jose vs. G-Spot Remix).aucdtect]
Detected average hi-boundary frequency: 2.014015e+004 Hz
Detected average lo-boundary frequency: 1.268936e+004 Hz
Detected average hi-cut frequency: 2.191165e+004 Hz
Detected average lo-cut frequency: 1.395588e+004 Hz
Maximum probablis boundary frequency: 2.189100e+004 Hz
Coefficient of nonlinearity of a phase: 6.708746e-001
First order smothness: 3.974584e-001
Second order smothness: 5.354952e-001
------------------------------------------------------------
This track looks like CDDA with probability 100%
===========================================
    Track: 19. 2 Brothers On The 4th Floor - Shine Like A Star (Previously Unreleased)
Processing file: [19. 2 Brothers On The 4th Floor - Shine Like A Star (Previously Unreleased).aucdtect]
Detected average hi-boundary frequency: 2.017533e+004 Hz
Detected average lo-boundary frequency: 1.341320e+004 Hz
Detected average hi-cut frequency: 2.156984e+004 Hz
Detected average lo-cut frequency: 9.744493e+003 Hz
Maximum probablis boundary frequency: 2.189100e+004 Hz
Coefficient of nonlinearity of a phase: 7.295395e-001
First order smothness: 3.664384e-001
Second order smothness: 4.323630e-001
------------------------------------------------------------
This track looks like CDDA with probability 100%
===========================================
    Track: 20. 2 Brothers On The 4th Floor - Dreams (Will Come Alive) (Fragiel Acoustic Version)
Processing file: [20. 2 Brothers On The 4th Floor - Dreams (Will Come Alive) (Fragiel Acoustic Version).aucdtect]
Detected average hi-boundary frequency: 2.027684e+004 Hz
Detected average lo-boundary frequency: 1.325949e+004 Hz
Detected average hi-cut frequency: 2.165562e+004 Hz
Detected average lo-cut frequency: 1.375344e+004 Hz
Maximum probablis boundary frequency: 2.189100e+004 Hz
Coefficient of nonlinearity of a phase: 2.721642e-001
First order smothness: 3.832117e-001
Second order smothness: 6.759935e-001
------------------------------------------------------------
This track looks like CDDA with probability 99%
===========================================
Код:
foobar2000 1.3.8 / Dynamic Range Meter 1.1.1
log date: 2016-05-08 06:18:18
--------------------------------------------------------------------------------
Analyzed: 2 Brothers On The 4th Floor / The Very Best Of (CD1 Radio Hits)
--------------------------------------------------------------------------------
DR         Peak         RMS     Duration Track
--------------------------------------------------------------------------------
DR8       -0.30 dB    -9.93 dB      4:31 01-Can't Help Myself (Extended Intro Version)
DR8       -0.30 dB    -9.64 dB      4:39 02-Turn Da Music Up (Radio Version)
DR7       -0.80 dB    -9.04 dB      4:13 03-Never Alone (Euro Radio Mix)
DR8       -0.30 dB    -9.40 dB      4:24 04-Dreams (Will Come Alive)
DR8       -0.30 dB    -9.53 dB      3:27 05-Let Me Be Free
DR7       -0.30 dB    -9.43 dB      3:29 06-Fly (Through The Starry Night)
DR7       -0.30 dB    -9.46 dB      4:05 07-Come Take My Hand
DR7       -0.30 dB    -9.73 dB      3:31 08-Fairytailes
DR7       -0.30 dB   -10.21 dB      3:30 09-Mirror Of Love
DR8       -0.30 dB   -10.22 dB      3:57 10-There's A Key
DR10      -0.30 dB   -11.52 dB      3:16 11-One Day
DR7       -0.80 dB    -8.86 dB      3:28 12-I'm Thinkin' Of U
DR9       -0.80 dB   -11.15 dB      3:44 13-Do You Know?
DR7       -0.30 dB    -9.59 dB      3:16 14-The Sun Will Be Shining
DR5       -0.30 dB    -8.22 dB      3:34 15-Heaven Is Here
DR8       -0.30 dB    -8.70 dB      3:48 16-Living In Cyberspace
DR7       -0.30 dB    -8.65 dB      4:01 17-Wonderful Feeling
DR7       -0.30 dB    -8.69 dB      3:33 18-Stand Up And Live (Dj Jose vs. G-Spot Remix)
DR8       -0.30 dB    -9.49 dB      3:38 19-Shine Like A Star (Previously Unreleased)
DR10      -0.30 dB   -13.00 dB      3:49 20-Dreams (Will Come Alive) (Fragiel Acoustic Version)
--------------------------------------------------------------------------------
Number of tracks:  20
Official DR value: DR8
Samplerate:        44100 Hz
Channels:          2
Bits per sample:   16
Bitrate:           1003 kbps
Codec:             FLAC
================================================================================
01. Dreams 2016 (Will Come Alive) (Louis Bailar & Dimitris Kops Remix) (3:08)
02. Turn Da Music Up (Dj Marcello & Rutger 'Rutti' Kroese Remix) (7:26)
03. Dreams (Will Come Alive)(Twenty 4 Seven Remix) (5:49)
04. Let Me Be Free (Beats 'R' Us Mix) (4:40)
05. Fly (Through The Starry Night) (Capella Remix) (5:46)
06. Come Take My Hand (Lick Mix) (4:41)
07. Fairytales (Charly Lownoise & Mental Theo Remix) (4:08)
08. I'm Thinking Of U (Ferry Corsten Remix) (4:29)
09. Do You Know (Where You'Re Going To) (Ferry Corsten Remix) (4:36)
10. The Sun Will Be Shining (Ferry Cortsten Remix) (5:12)
11. Come Take My Hand (Cooly D's Jungle Mix) (5:28)
12. Living In Cyberspace (John Van Dongen And Ron Van Den Beuken Remix) (4:48)
13. Wonderful Feeling (Sunclub Remix) (5:06)
14. Euro Megamix (Mixed By Arjan Rietvink) (3:45)
15. Happy Hardcore Megamix (Mixed By Tim Hoppema) (4:29)
16. Never Alone 2016 (Freestyle Maniacs HDM Remix) (4:45)
Код:
Exact Audio Copy V1.1 from 23. June 2015
EAC extraction logfile from 7. May 2016, 15:25
2 Brothers On The 4th Floor / The Very Best Of (CD2 Remixes)
Used drive  : HL-DT-STDVDRAM GH24NSD1   Adapter: 0  ID: 0
Read mode               : Secure
Utilize accurate stream : Yes
Defeat audio cache      : Yes
Make use of C2 pointers : No
Read offset correction                      : 6
Overread into Lead-In and Lead-Out          : No
Fill up missing offset samples with silence : Yes
Delete leading and trailing silent blocks   : No
Null samples used in CRC calculations       : Yes
Used interface                              : Installed external ASPI interface
Used output format : Internal WAV Routines
Sample format      : 44.100 Hz; 16 Bit; Stereo
TOC of the extracted CD
     Track |   Start  |  Length  | Start sector | End sector
    ---------------------------------------------------------
        1  |  0:00.00 |  3:07.62 |         0    |    14086
        2  |  3:07.62 |  7:26.16 |     14087    |    47552
        3  | 10:34.03 |  5:49.02 |     47553    |    73729
        4  | 16:23.05 |  4:40.35 |     73730    |    94764
        5  | 21:03.40 |  5:45.61 |     94765    |   120700
        6  | 26:49.26 |  4:40.49 |    120701    |   141749
        7  | 31:30.00 |  4:07.72 |    141750    |   160346
        8  | 35:37.72 |  4:29.09 |    160347    |   180530
        9  | 40:07.06 |  4:36.32 |    180531    |   201262
       10  | 44:43.38 |  5:11.69 |    201263    |   224656
       11  | 49:55.32 |  5:28.20 |    224657    |   249276
       12  | 55:23.52 |  4:47.73 |    249277    |   270874
       13  | 60:11.50 |  5:05.42 |    270875    |   293791
       14  | 65:17.17 |  3:45.33 |    293792    |   310699
       15  | 69:02.50 |  4:29.12 |    310700    |   330886
       16  | 73:31.62 |  4:45.32 |    330887    |   352293
Range status and errors
Selected range
     Filename E:\SPOTNET\2 Brothers On The 4Th Floor - Very Best Of (EAC)\CD2 Remixes)\2 Brothers On The 4th Floor - The Very Best Of (CD2 Remixes).wav
     Peak level 100.0 %
     Extraction speed 8.3 X
     Range quality 100.0 %
     Test CRC 2B008AA8
     Copy CRC 2B008AA8
     Copy OK
No errors occurred
AccurateRip summary
Track  1  not present in database
Track  2  not present in database
Track  3  not present in database
Track  4  not present in database
Track  5  not present in database
Track  6  not present in database
Track  7  not present in database
Track  8  not present in database
Track  9  not present in database
Track 10  not present in database
Track 11  not present in database
Track 12  not present in database
Track 13  not present in database
Track 14  not present in database
Track 15  not present in database
Track 16  not present in database
None of the tracks are present in the AccurateRip database
End of status report
Код:
REM GENRE Dance
REM DATE 2016
REM DISCID FB125910
REM COMMENT "ExactAudioCopy v1.1"
PERFORMER "2 Brothers On The 4th Floor"
TITLE "The Very Best Of (CD2 Remixes)"
FILE "2 Brothers On The 4th Floor - The Very Best Of (CD2 Remixes).wav" WAVE
  TRACK 01 AUDIO
    TITLE "Dreams 2016 (Will Come Alive) (Louis Bailar & Dimitris Kops Remix) "
    PERFORMER "2 Brothers On The 4th Floor"
    INDEX 01 00:00:00
  TRACK 02 AUDIO
    TITLE "Turn Da Music Up (Dj Marcello & Rutger 'Rutti' Kroese Remix)"
    PERFORMER "2 Brothers On The 4th Floor"
    INDEX 00 03:06:62
    INDEX 01 03:07:62
  TRACK 03 AUDIO
    TITLE "Dreams (Will Come Alive)(Twenty 4 Seven Remix)"
    PERFORMER "2 Brothers On The 4th Floor"
    INDEX 00 10:33:03
    INDEX 01 10:34:03
  TRACK 04 AUDIO
    TITLE "Let Me Be Free (Beats 'R' Us Mix)"
    PERFORMER "2 Brothers On The 4th Floor"
    INDEX 00 16:22:05
    INDEX 01 16:23:05
  TRACK 05 AUDIO
    TITLE "Fly (Through The Starry Night) (Capella Remix)"
    PERFORMER "2 Brothers On The 4th Floor"
    INDEX 00 21:02:40
    INDEX 01 21:03:40
  TRACK 06 AUDIO
    TITLE "Come Take My Hand (Lick Mix)"
    PERFORMER "2 Brothers On The 4th Floor"
    INDEX 00 26:48:26
    INDEX 01 26:49:26
  TRACK 07 AUDIO
    TITLE "Fairytales (Charly Lownoise & Mental Theo Remix)"
    PERFORMER "2 Brothers On The 4th Floor"
    INDEX 00 31:29:00
    INDEX 01 31:30:00
  TRACK 08 AUDIO
    TITLE "I'm Thinking Of U (Ferry Corsten Remix)"
    PERFORMER "2 Brothers On The 4th Floor"
    INDEX 00 35:36:72
    INDEX 01 35:37:72
  TRACK 09 AUDIO
    TITLE "Do You Know (Where You'Re Going To) (Ferry Corsten Remix)"
    PERFORMER "2 Brothers On The 4th Floor"
    INDEX 00 40:06:06
    INDEX 01 40:07:06
  TRACK 10 AUDIO
    TITLE "The Sun Will Be Shining (Ferry Cortsten Remix)"
    PERFORMER "2 Brothers On The 4th Floor"
    INDEX 00 44:42:38
    INDEX 01 44:43:38
  TRACK 11 AUDIO
    TITLE "Come Take My Hand (Cooly D's Jungle Mix)"
    PERFORMER "2 Brothers On The 4th Floor"
    INDEX 00 49:54:32
    INDEX 01 49:55:32
  TRACK 12 AUDIO
    TITLE "Living In Cyberspace (John Van Dongen And Ron Van Den Beuken Remix)"
    PERFORMER "2 Brothers On The 4th Floor"
    INDEX 00 55:22:52
    INDEX 01 55:23:52
  TRACK 13 AUDIO
    TITLE "Wonderful Feeling (Sunclub Remix)"
    PERFORMER "2 Brothers On The 4th Floor"
    INDEX 00 60:10:50
    INDEX 01 60:11:50
  TRACK 14 AUDIO
    TITLE "Euro Megamix (Mixed By Arjan Rietvink)"
    PERFORMER "2 Brothers On The 4th Floor"
    INDEX 00 65:16:17
    INDEX 01 65:17:17
  TRACK 15 AUDIO
    TITLE "Happy Hardcore Megamix (Mixed By Tim Hoppema)"
    PERFORMER "2 Brothers On The 4th Floor"
    INDEX 00 69:01:50
    INDEX 01 69:02:50
  TRACK 16 AUDIO
    TITLE "Never Alone 2016 (Freestyle Maniacs HDM Remix)"
    PERFORMER "2 Brothers On The 4th Floor"
    INDEX 00 73:30:62
    INDEX 01 73:31:62
Код:
fooCDtect - foobar2000 + auCDtect, baralgin.
auCDtect: CD records authenticity detector, version 0.8.2
Copyright (c) 2004 Oleg Berngardt. All rights reserved.
Copyright (c) 2004 Alexander Djourik. All rights reserved.
     mode: 0
===========================================
    Track: 01. 2 Brothers On The 4th Floor - Dreams 2016 (Will Come Alive) (Louis Bailar & Dimitris Kops Remix)
Processing file: [01. 2 Brothers On The 4th Floor - Dreams 2016 (Will Come Alive) (Louis Bailar & Dimitris Kops Remix) .aucdtect]
Detected average hi-boundary frequency: 2.106554e+004 Hz
Detected average lo-boundary frequency: 1.702475e+004 Hz
Detected average hi-cut frequency: 2.179761e+004 Hz
Detected average lo-cut frequency: 1.922760e+004 Hz
Maximum probablis boundary frequency: 2.189100e+004 Hz
Coefficient of nonlinearity of a phase: 2.984539e-002
First order smothness: 5.387674e-001
Second order smothness: 7.688867e-001
------------------------------------------------------------
This track looks like MPEG with probability 95%
===========================================
    Track: 02. 2 Brothers On The 4th Floor - Turn Da Music Up (Dj Marcello & Rutger 'Rutti' Kroese Remix)
Processing file: [02. 2 Brothers On The 4th Floor - Turn Da Music Up (Dj Marcello & Rutger 'Rutti' Kroese Remix).aucdtect]
Detected average hi-boundary frequency: 2.036716e+004 Hz
Detected average lo-boundary frequency: 1.374591e+004 Hz
Detected average hi-cut frequency: 2.105996e+004 Hz
Detected average lo-cut frequency: 6.620843e+003 Hz
Maximum probablis boundary frequency: 2.189100e+004 Hz
Coefficient of nonlinearity of a phase: 1.149738e-001
First order smothness: 4.161452e-001
Second order smothness: 4.083038e-001
------------------------------------------------------------
This track looks like CDDA with probability 100%
===========================================
    Track: 03. 2 Brothers On The 4th Floor - Dreams (Will Come Alive)(Twenty 4 Seven Remix)
Processing file: [03. 2 Brothers On The 4th Floor - Dreams (Will Come Alive)(Twenty 4 Seven Remix).aucdtect]
Detected average hi-boundary frequency: 2.034722e+004 Hz
Detected average lo-boundary frequency: 1.371938e+004 Hz
Detected average hi-cut frequency: 2.129088e+004 Hz
Detected average lo-cut frequency: 1.239092e+004 Hz
Maximum probablis boundary frequency: 2.189100e+004 Hz
Coefficient of nonlinearity of a phase: 2.173493e-001
First order smothness: 4.486256e-001
Second order smothness: 5.061366e-001
------------------------------------------------------------
This track looks like CDDA with probability 100%
===========================================
    Track: 04. 2 Brothers On The 4th Floor - Let Me Be Free (Beats 'R' Us Mix)
Processing file: [04. 2 Brothers On The 4th Floor - Let Me Be Free (Beats 'R' Us Mix).aucdtect]
Detected average hi-boundary frequency: 2.022664e+004 Hz
Detected average lo-boundary frequency: 1.267758e+004 Hz
Detected average hi-cut frequency: 2.156825e+004 Hz
Detected average lo-cut frequency: 1.195837e+004 Hz
Maximum probablis boundary frequency: 2.189100e+004 Hz
Coefficient of nonlinearity of a phase: 1.100783e+000
First order smothness: 3.785311e-001
Second order smothness: 5.184447e-001
------------------------------------------------------------
This track looks like CDDA with probability 100%
===========================================
    Track: 05. 2 Brothers On The 4th Floor - Fly (Through The Starry Night) (Capella Remix)
Processing file: [05. 2 Brothers On The 4th Floor - Fly (Through The Starry Night) (Capella Remix).aucdtect]
Detected average hi-boundary frequency: 2.029076e+004 Hz
Detected average lo-boundary frequency: 1.368748e+004 Hz
Detected average hi-cut frequency: 2.119418e+004 Hz
Detected average lo-cut frequency: 1.162477e+004 Hz
Maximum probablis boundary frequency: 2.189100e+004 Hz
Coefficient of nonlinearity of a phase: 1.352721e-001
First order smothness: 3.485053e-001
Second order smothness: 4.718556e-001
------------------------------------------------------------
This track looks like CDDA with probability 100%
===========================================
    Track: 06. 2 Brothers On The 4th Floor - Come Take My Hand (Lick Mix)
Processing file: [06. 2 Brothers On The 4th Floor - Come Take My Hand (Lick Mix).aucdtect]
Detected average hi-boundary frequency: 2.049394e+004 Hz
Detected average lo-boundary frequency: 1.494584e+004 Hz
Detected average hi-cut frequency: 2.143292e+004 Hz
Detected average lo-cut frequency: 1.239792e+004 Hz
Maximum probablis boundary frequency: 2.189100e+004 Hz
Coefficient of nonlinearity of a phase: 3.505836e-002
First order smothness: 5.303886e-001
Second order smothness: 5.436732e-001
------------------------------------------------------------
This track looks like CDDA with probability 100%
===========================================
    Track: 07. 2 Brothers On The 4th Floor - Fairytales (Charly Lownoise & Mental Theo Remix)
Processing file: [07. 2 Brothers On The 4th Floor - Fairytales (Charly Lownoise & Mental Theo Remix).aucdtect]
Detected average hi-boundary frequency: 2.050785e+004 Hz
Detected average lo-boundary frequency: 1.399102e+004 Hz
Detected average hi-cut frequency: 2.177304e+004 Hz
Detected average lo-cut frequency: 1.866991e+004 Hz
Maximum probablis boundary frequency: 2.189100e+004 Hz
Coefficient of nonlinearity of a phase: 1.204510e-001
First order smothness: 4.080481e-001
Second order smothness: 7.615645e-001
------------------------------------------------------------
This track looks like CDDA with probability 100%
===========================================
    Track: 08. 2 Brothers On The 4th Floor - I'm Thinking Of U (Ferry Corsten Remix)
Processing file: [08. 2 Brothers On The 4th Floor - I'm Thinking Of U (Ferry Corsten Remix).aucdtect]
Detected average hi-boundary frequency: 2.034274e+004 Hz
Detected average lo-boundary frequency: 1.366497e+004 Hz
Detected average hi-cut frequency: 2.168519e+004 Hz
Detected average lo-cut frequency: 1.106013e+004 Hz
Maximum probablis boundary frequency: 2.189100e+004 Hz
Coefficient of nonlinearity of a phase: 1.702781e-001
First order smothness: 4.648424e-001
Second order smothness: 4.073433e-001
------------------------------------------------------------
This track looks like CDDA with probability 100%
===========================================
    Track: 09. 2 Brothers On The 4th Floor - Do You Know (Where You'Re Going To) (Ferry Corsten Remix)
Processing file: [09. 2 Brothers On The 4th Floor - Do You Know (Where You'Re Going To) (Ferry Corsten Remix).aucdtect]
Detected average hi-boundary frequency: 2.014303e+004 Hz
Detected average lo-boundary frequency: 1.224416e+004 Hz
Detected average hi-cut frequency: 2.127843e+004 Hz
Detected average lo-cut frequency: 1.001082e+004 Hz
Maximum probablis boundary frequency: 2.189100e+004 Hz
Coefficient of nonlinearity of a phase: 3.659474e-001
First order smothness: 3.877276e-001
Second order smothness: 3.708699e-001
------------------------------------------------------------
This track looks like CDDA with probability 100%
===========================================
    Track: 10. 2 Brothers On The 4th Floor - The Sun Will Be Shining (Ferry Cortsten Remix)
Processing file: [10. 2 Brothers On The 4th Floor - The Sun Will Be Shining (Ferry Cortsten Remix).aucdtect]
Detected average hi-boundary frequency: 2.023013e+004 Hz
Detected average lo-boundary frequency: 1.292379e+004 Hz
Detected average hi-cut frequency: 2.168642e+004 Hz
Detected average lo-cut frequency: 1.062794e+004 Hz
Maximum probablis boundary frequency: 2.189100e+004 Hz
Coefficient of nonlinearity of a phase: 2.183342e-001
First order smothness: 3.924731e-001
Second order smothness: 4.543011e-001
------------------------------------------------------------
This track looks like CDDA with probability 100%
===========================================
    Track: 11. 2 Brothers On The 4th Floor - Come Take My Hand (Cooly D's Jungle Mix)
Processing file: [11. 2 Brothers On The 4th Floor - Come Take My Hand (Cooly D's Jungle Mix).aucdtect]
Detected average hi-boundary frequency: 2.042793e+004 Hz
Detected average lo-boundary frequency: 1.415214e+004 Hz
Detected average hi-cut frequency: 2.157760e+004 Hz
Detected average lo-cut frequency: 9.468692e+003 Hz
Maximum probablis boundary frequency: 2.189100e+004 Hz
Coefficient of nonlinearity of a phase: 1.152595e-001
First order smothness: 4.591373e-001
Second order smothness: 4.458002e-001
------------------------------------------------------------
This track looks like CDDA with probability 100%
===========================================
    Track: 12. 2 Brothers On The 4th Floor - Living In Cyberspace (John Van Dongen And Ron Van Den Beuken Remix)
Processing file: [12. 2 Brothers On The 4th Floor - Living In Cyberspace (John Van Dongen And Ron Van Den Beuken Remix).aucdtect]
Detected average hi-boundary frequency: 2.023585e+004 Hz
Detected average lo-boundary frequency: 1.577933e+004 Hz
Detected average hi-cut frequency: 2.006561e+004 Hz
Detected average lo-cut frequency: 1.764110e+004 Hz
Maximum probablis boundary frequency: 2.189100e+004 Hz
Coefficient of nonlinearity of a phase: 6.795734e-003
First order smothness: 5.475728e-001
Second order smothness: 6.711974e-001
------------------------------------------------------------
This track looks like MPEG with probability 95%
===========================================
    Track: 13. 2 Brothers On The 4th Floor - Wonderful Feeling (Sunclub Remix)
Processing file: [13. 2 Brothers On The 4th Floor - Wonderful Feeling (Sunclub Remix).aucdtect]
Detected average hi-boundary frequency: 2.014652e+004 Hz
Detected average lo-boundary frequency: 1.300278e+004 Hz
Detected average hi-cut frequency: 2.183358e+004 Hz
Detected average lo-cut frequency: 1.011306e+004 Hz
Maximum probablis boundary frequency: 2.189100e+004 Hz
Coefficient of nonlinearity of a phase: 1.953673e-001
First order smothness: 4.179878e-001
Second order smothness: 3.015244e-001
------------------------------------------------------------
This track looks like CDDA with probability 100%
===========================================
    Track: 14. 2 Brothers On The 4th Floor - Euro Megamix (Mixed By Arjan Rietvink)
Processing file: [14. 2 Brothers On The 4th Floor - Euro Megamix (Mixed By Arjan Rietvink).aucdtect]
Detected average hi-boundary frequency: 2.021332e+004 Hz
Detected average lo-boundary frequency: 1.350971e+004 Hz
Detected average hi-cut frequency: 2.154562e+004 Hz
Detected average lo-cut frequency: 9.711655e+003 Hz
Maximum probablis boundary frequency: 2.189100e+004 Hz
Coefficient of nonlinearity of a phase: 5.789991e-001
First order smothness: 3.678113e-001
Second order smothness: 3.938767e-001
------------------------------------------------------------
This track looks like CDDA with probability 100%
===========================================
    Track: 15. 2 Brothers On The 4th Floor - Happy Hardcore Megamix (Mixed By Tim Hoppema)
Processing file: [15. 2 Brothers On The 4th Floor - Happy Hardcore Megamix (Mixed By Tim Hoppema).aucdtect]
Detected average hi-boundary frequency: 2.027732e+004 Hz
Detected average lo-boundary frequency: 1.292637e+004 Hz
Detected average hi-cut frequency: 2.092994e+004 Hz
Detected average lo-cut frequency: 9.603954e+003 Hz
Maximum probablis boundary frequency: 2.189100e+004 Hz
Coefficient of nonlinearity of a phase: 1.280927e+000
First order smothness: 3.486842e-001
Second order smothness: 3.968144e-001
------------------------------------------------------------
This track looks like CDDA with probability 100%
===========================================
    Track: 16. 2 Brothers On The 4th Floor - Never Alone 2016 (Freestyle Maniacs HDM Remix)
Processing file: [16. 2 Brothers On The 4th Floor - Never Alone 2016 (Freestyle Maniacs HDM Remix).aucdtect]
Detected average hi-boundary frequency: 2.027898e+004 Hz
Detected average lo-boundary frequency: 1.267813e+004 Hz
Detected average hi-cut frequency: 2.109085e+004 Hz
Detected average lo-cut frequency: 1.000247e+004 Hz
Maximum probablis boundary frequency: 2.189100e+004 Hz
Coefficient of nonlinearity of a phase: 1.557210e-001
First order smothness: 3.721535e-001
Second order smothness: 3.031880e-001
------------------------------------------------------------
This track looks like CDDA with probability 100%
===========================================
Код:
foobar2000 1.3.8 / Dynamic Range Meter 1.1.1
log date: 2016-05-08 06:18:29
--------------------------------------------------------------------------------
Analyzed: 2 Brothers On The 4th Floor / The Very Best Of (CD2 Remixes)
--------------------------------------------------------------------------------
DR         Peak         RMS     Duration Track
--------------------------------------------------------------------------------
DR6       -1.40 dB    -8.36 dB      3:08 01-Dreams 2016 (Will Come Alive) (Louis Bailar & Dimitris Kops Remix)
DR7       -0.10 dB    -8.19 dB      7:26 02-Turn Da Music Up (Dj Marcello & Rutger 'Rutti' Kroese Remix)
DR8       -0.10 dB    -9.13 dB      5:49 03-Dreams (Will Come Alive)(Twenty 4 Seven Remix)
DR8       -0.10 dB    -8.89 dB      4:40 04-Let Me Be Free (Beats 'R' Us Mix)
DR7       -0.60 dB    -9.09 dB      5:46 05-Fly (Through The Starry Night) (Capella Remix)
DR8       -0.10 dB   -10.01 dB      4:41 06-Come Take My Hand (Lick Mix)
DR7       -0.10 dB    -9.18 dB      4:08 07-Fairytales (Charly Lownoise & Mental Theo Remix)
DR7       -0.10 dB    -8.44 dB      4:29 08-I'm Thinking Of U (Ferry Corsten Remix)
DR8       -0.10 dB    -9.30 dB      4:36 09-Do You Know (Where You'Re Going To) (Ferry Corsten Remix)
DR7       -0.10 dB    -8.52 dB      5:12 10-The Sun Will Be Shining (Ferry Cortsten Remix)
DR8       -0.10 dB   -10.11 dB      5:28 11-Come Take My Hand (Cooly D's Jungle Mix)
DR7       -0.10 dB    -8.68 dB      4:48 12-Living In Cyberspace (John Van Dongen And Ron Van Den Beuken Remix)
DR8       -0.10 dB    -9.39 dB      5:06 13-Wonderful Feeling (Sunclub Remix)
DR7       -0.60 dB    -8.92 dB      3:45 14-Euro Megamix (Mixed By Arjan Rietvink)
DR7       -0.10 dB    -9.37 dB      4:29 15-Happy Hardcore Megamix (Mixed By Tim Hoppema)
DR7        0.00 dB   -11.21 dB      4:45 16-Never Alone 2016 (Freestyle Maniacs HDM Remix)
--------------------------------------------------------------------------------
Number of tracks:  16
Official DR value: DR7
Samplerate:        44100 Hz
Channels:          2
Bits per sample:   16
Bitrate:           1013 kbps
Codec:             FLAC
================================================================================
http://2brothersonthe4thfloor.nl/
https://ru.wikipedia.org/wiki/2_Brothers_on_the_4th_Floor
Правила, инструкции, FAQ!!!
Торрент  Добавлен [23 май 2019, 20:03] Скачать торрент Магнет ссылка
Скачать торрент
[ Размер 8.18 КБ / Просмотров 5 ]

Статус
Проверен 
 
Размер  1.09 ГБ
Приватный: Нет (DHT включён)
.torrent скачан  0
Как залить торрент? | Как скачать Torrent? | Ошибка в торренте? Качайте магнет  


     Отправить личное сообщение
   
Страница 1 из 1
Показать сообщения за:  Поле сортировки  
Начать новую тему Ответить на тему


Сейчас этот форум просматривают: нет зарегистрированных пользователей и гости: 0


Вы не можете начинать темы
Вы не можете отвечать на сообщения
Вы не можете редактировать свои сообщения
Вы не можете удалять свои сообщения
Вы не можете добавлять вложения

Перейти:  
Ресурс не предоставляет электронные версии произведений, а занимается лишь коллекционированием и каталогизацией ссылок, присылаемых и публикуемых на форуме нашими читателями. Если вы являетесь правообладателем какого-либо представленного материала и не желаете чтобы ссылка на него находилась в нашем каталоге, свяжитесь с нами и мы незамедлительно удалим её. Файлы для обмена на трекере предоставлены пользователями сайта, и администрация не несёт ответственности за их содержание. Просьба не заливать файлы, защищенные авторскими правами, а также файлы нелегального содержания!
cron